Статистика раздачи
Нет
 
     
 
 

benson26 ®

Пол:
Не указан
Стаж:
1 год 8 месяцев
Сообщений:
257

Håkan Hellström / Du gamla du fria
Жанр: Pop
Носитель: CD
Год издания: 2016
Издатель (лейбл): Warner Music / Woah Dad!
Страна исполнителя (группы): Sweden
Аудиокодек: FLAC (*.flac)
Тип рипа: image+.cue
Продолжительность: 00:47:15
Источник: собственный рип
Наличие сканов в содержимом раздачи: да
Треклист:
1. #10 Dream
2. I sprickorna kommer ljuset in
3. Runaway (fri som en byrd)
4. Öppen genom hela natten
5. Jag utan dig
6. Pärlor
7. Du gamla (That's Alright Since My Soul Got a Seat Up in the Kingdom)
8. Din tid kommer
9. Elefanten & sparven
10. Hoppas det ska gå bra för de yngre också
11. Ingen oro, tjabo!
12. Du fria

Лог создания рипа

Exact Audio Copy V1.3 from 2. September 2016
EAC extraction logfile from 19. January 2020, 20:05
Håkan Hellström / Du gamla du fria
Used drive : SlimtypeeBAU108 6 L Adapter: 1 ID: 0
Read mode : Secure
Utilize accurate stream : Yes
Defeat audio cache : Yes
Make use of C2 pointers : No
Read offset correction : 6
Overread into Lead-In and Lead-Out : No
Fill up missing offset samples with silence : Yes
Delete leading and trailing silent blocks : No
Null samples used in CRC calculations : Yes
Used interface : Native Win32 interface for Win NT & 2000
Used output format : User Defined Encoder
Selected bitrate : 1024 kBit/s
Quality : High
Add ID3 tag : No
Command line compressor : E:\toBeShared\flac.exe
Additional command line options : -8 -V
TOC of the extracted CD
Track | Start | Length | Start sector | End sector
---------------------------------------------------------
1 | 0:00.00 | 1:36.60 | 0 | 7259
2 | 1:36.60 | 4:20.51 | 7260 | 26810
3 | 5:57.36 | 4:34.31 | 26811 | 47391
4 | 10:31.67 | 4:41.40 | 47392 | 68506
5 | 15:13.32 | 4:04.74 | 68507 | 86880
6 | 19:18.31 | 5:13.55 | 86881 | 110410
7 | 24:32.11 | 1:55.35 | 110411 | 119070
8 | 26:27.46 | 4:41.66 | 119071 | 140211
9 | 31:09.37 | 4:09.22 | 140212 | 158908
10 | 35:18.59 | 4:14.15 | 158909 | 177973
11 | 39:32.74 | 4:10.17 | 177974 | 196740
12 | 43:43.16 | 3:31.50 | 196741 | 212615
Range status and errors
Selected range
Filename F:\toBeShared\_2016 - Håkan Hellström - Håkan Hellström at the Opera\Håkan Hellström - Du gamla du fria.wav
Peak level 100.0 %
Extraction speed 4.1 X
Range quality 100.0 %
Test CRC 5E754AE5
Copy CRC 5E754AE5
Copy OK
No errors occurred
AccurateRip summary
Track 1 accurately ripped (confidence 7) [17CF8FAF] (AR v2)
Track 2 accurately ripped (confidence 7) [D9DF90EA] (AR v2)
Track 3 accurately ripped (confidence 7) [FBDA830E] (AR v2)
Track 4 accurately ripped (confidence 7) [9ACA5757] (AR v2)
Track 5 accurately ripped (confidence 7) [D7452FA1] (AR v2)
Track 6 accurately ripped (confidence 7) [3C19526D] (AR v2)
Track 7 accurately ripped (confidence 7) [C532DEFC] (AR v2)
Track 8 accurately ripped (confidence 7) [5543D0AE] (AR v2)
Track 9 accurately ripped (confidence 7) [F13A9242] (AR v2)
Track 10 accurately ripped (confidence 7) [C6A3D7B1] (AR v2)
Track 11 accurately ripped (confidence 7) [8A813C9F] (AR v2)
Track 12 accurately ripped (confidence 7) [AD9D38F4] (AR v2)
All tracks accurately ripped
End of status report
---- CUETools DB Plugin V2.1.6
[CTDB TOCID: V_ZsKAGn8eBLc.ch6g17db8gW9o-] found
Submit result: already submitted
Track | CTDB Status
1 | (32/32) Accurately ripped
2 | (32/32) Accurately ripped
3 | (32/32) Accurately ripped
4 | (32/32) Accurately ripped
5 | (32/32) Accurately ripped
6 | (32/32) Accurately ripped
7 | (32/32) Accurately ripped
8 | (32/32) Accurately ripped
9 | (32/32) Accurately ripped
10 | (32/32) Accurately ripped
11 | (32/32) Accurately ripped
12 | (32/32) Accurately ripped
==== Log checksum C6C8836365105A3018483CD2FD849CF9B06BDB8AC67B8CE2FD8593C61FFC0EAE ====
------------------------------------------------------------
Exact Audio Copy V1.3 from 2. September 2016
EAC extraction logfile from 19. January 2020, 20:05
Håkan Hellström / Du gamla du fria
Used drive : SlimtypeeBAU108 6 L Adapter: 1 ID: 0
Read mode : Secure
Utilize accurate stream : Yes
Defeat audio cache : Yes
Make use of C2 pointers : No
Read offset correction : 6
Overread into Lead-In and Lead-Out : No
Fill up missing offset samples with silence : Yes
Delete leading and trailing silent blocks : No
Null samples used in CRC calculations : Yes
Used interface : Native Win32 interface for Win NT & 2000
Used output format : User Defined Encoder
Selected bitrate : 1024 kBit/s
Quality : High
Add ID3 tag : No
Command line compressor : E:\toBeShared\flac.exe
Additional command line options : -8 -V
TOC of the extracted CD
Track | Start | Length | Start sector | End sector
---------------------------------------------------------
1 | 0:00.00 | 1:36.60 | 0 | 7259
2 | 1:36.60 | 4:20.51 | 7260 | 26810
3 | 5:57.36 | 4:34.31 | 26811 | 47391
4 | 10:31.67 | 4:41.40 | 47392 | 68506
5 | 15:13.32 | 4:04.74 | 68507 | 86880
6 | 19:18.31 | 5:13.55 | 86881 | 110410
7 | 24:32.11 | 1:55.35 | 110411 | 119070
8 | 26:27.46 | 4:41.66 | 119071 | 140211
9 | 31:09.37 | 4:09.22 | 140212 | 158908
10 | 35:18.59 | 4:14.15 | 158909 | 177973
11 | 39:32.74 | 4:10.17 | 177974 | 196740
12 | 43:43.16 | 3:31.50 | 196741 | 212615
Range status and errors
Selected range
Filename F:\toBeShared\_2016 - Håkan Hellström - Håkan Hellström at the Opera\Håkan Hellström - Du gamla du fria.wav
Peak level 100.0 %
Extraction speed 4.1 X
Range quality 100.0 %
Test CRC 5E754AE5
Copy CRC 5E754AE5
Copy OK
No errors occurred
AccurateRip summary
Track 1 accurately ripped (confidence 7) [17CF8FAF] (AR v2)
Track 2 accurately ripped (confidence 7) [D9DF90EA] (AR v2)
Track 3 accurately ripped (confidence 7) [FBDA830E] (AR v2)
Track 4 accurately ripped (confidence 7) [9ACA5757] (AR v2)
Track 5 accurately ripped (confidence 7) [D7452FA1] (AR v2)
Track 6 accurately ripped (confidence 7) [3C19526D] (AR v2)
Track 7 accurately ripped (confidence 7) [C532DEFC] (AR v2)
Track 8 accurately ripped (confidence 7) [5543D0AE] (AR v2)
Track 9 accurately ripped (confidence 7) [F13A9242] (AR v2)
Track 10 accurately ripped (confidence 7) [C6A3D7B1] (AR v2)
Track 11 accurately ripped (confidence 7) [8A813C9F] (AR v2)
Track 12 accurately ripped (confidence 7) [AD9D38F4] (AR v2)
All tracks accurately ripped
End of status report
---- CUETools DB Plugin V2.1.6
[CTDB TOCID: V_ZsKAGn8eBLc.ch6g17db8gW9o-] found
Submit result: already submitted
Track | CTDB Status
1 | (32/32) Accurately ripped
2 | (32/32) Accurately ripped
3 | (32/32) Accurately ripped
4 | (32/32) Accurately ripped
5 | (32/32) Accurately ripped
6 | (32/32) Accurately ripped
7 | (32/32) Accurately ripped
8 | (32/32) Accurately ripped
9 | (32/32) Accurately ripped
10 | (32/32) Accurately ripped
11 | (32/32) Accurately ripped
12 | (32/32) Accurately ripped
==== Log checksum C6C8836365105A3018483CD2FD849CF9B06BDB8AC67B8CE2FD8593C61FFC0EAE ====

Содержание индексной карты (.CUE)

REM DATE 2016
REM DISCID A30B120C
REM COMMENT "ExactAudioCopy v1.3"
PERFORMER "Håkan Hellström"
TITLE "Du gamla du fria"
REM COMPOSER ""
FILE "Håkan Hellström - Du gamla du fria.flac" WAVE
TRACK 01 AUDIO
TITLE "#10 Dream"
PERFORMER "Håkan Hellström"
REM COMPOSER ""
INDEX 01 00:00:00
TRACK 02 AUDIO
TITLE "I Sprickorna Kommer Ljuset In"
PERFORMER "Håkan Hellström"
REM COMPOSER ""
INDEX 01 01:36:60
TRACK 03 AUDIO
TITLE "Runaway (Fri Som en Byrd)"
PERFORMER "Håkan Hellström"
REM COMPOSER ""
INDEX 01 05:57:36
TRACK 04 AUDIO
TITLE "Öppen Genom Hela Natten"
PERFORMER "Håkan Hellström"
REM COMPOSER ""
INDEX 01 10:31:67
TRACK 05 AUDIO
TITLE "Jag Utan Dig"
PERFORMER "Håkan Hellström"
REM COMPOSER ""
INDEX 01 15:13:32
TRACK 06 AUDIO
TITLE "Pärlor"
PERFORMER "Håkan Hellström"
REM COMPOSER ""
INDEX 01 19:18:31
TRACK 07 AUDIO
TITLE "Du Gamla"
PERFORMER "Håkan Hellström"
REM COMPOSER ""
INDEX 01 24:32:11
TRACK 08 AUDIO
TITLE "Din Tid kommer"
PERFORMER "Håkan Hellström"
REM COMPOSER ""
INDEX 01 26:27:46
TRACK 09 AUDIO
TITLE "Elefanten & Sparven"
PERFORMER "Håkan Hellström"
REM COMPOSER ""
INDEX 01 31:09:37
TRACK 10 AUDIO
TITLE "Hoppas Det Ska Gå Bra För De Yngre Också"
PERFORMER "Håkan Hellström"
REM COMPOSER ""
INDEX 01 35:18:59
TRACK 11 AUDIO
TITLE "Ingen Oro, Tjabo"
PERFORMER "Håkan Hellström"
REM COMPOSER ""
INDEX 01 39:32:74
TRACK 12 AUDIO
TITLE "Du Fria"
PERFORMER "Hakan Hellstrom"
REM COMPOSER ""
INDEX 01 43:43:16

Об исполнителе (группе)

Подробнее об исполнителе тут: https://ru.wikipedia.org/wiki/%D0%A5%D0%B5%D0%BB%D0%BB%D1%8C%D1%81%D1%82%D1%80%D1...0%BA%D0%B0%D0%BD

Об альбоме (сборнике)

8-ой студийный альбом Хокана Хельстрёма (Håkan Hellström), вышедший 26 августа 2016 года.
Один трек с альбома был выпущен как сингл: I sprickorna kommer ljuset in.
Подробнее об альбоме тут: https://sv.wikipedia.org/wiki/Du_gamla_du_fria_(musikalbum)
Профиль [ЛС]
Показать сообщения:    

Текущее время: 18-Окт 22:25

Часовой пояс: UTC ± 0



Вы не можете начинать темы
Вы не можете отвечать на сообщения
Вы не можете редактировать свои сообщения
Вы не можете удалять свои сообщения
Вы не можете голосовать в опросах
Вы не можете прикреплять файлы к сообщениям
Вы не можете скачивать файлы