Статистика раздачи
Нет
 
     
 
 

benson26 ®

Пол:
Не указан
Стаж:
1 год 8 месяцев
Сообщений:
257

Håkan Hellström / 2 steg från paradise
Жанр: Pop
Носитель: CD
Год издания: 2010
Издатель (лейбл): Stranded Rekords
Страна исполнителя (группы): Sweden
Аудиокодек: FLAC (*.flac)
Тип рипа: image+.cue
Продолжительность: 00:50:04
Источник: собственный рип
Наличие сканов в содержимом раздачи: да
Треклист:
1. Det här är min tid
2. Saknade te havs
3. Shelley
4. River en vacker dröm
5. 2 steg från paradise
6. Jag vet vilken dy hon varit i
7. Dom där jag kommer från
8. Det dom aldrig nämner
9. Vid protesfabrikens stängsel
10. Man måste dö några gånger innan man kan leva
11. Du är snart där

Лог создания рипа

Exact Audio Copy V1.3 from 2. September 2016
EAC extraction logfile from 16. January 2020, 0:36
Håkan Hellström / 2 steg från paradise
Used drive : SlimtypeeBAU108 6 L Adapter: 1 ID: 0
Read mode : Secure
Utilize accurate stream : Yes
Defeat audio cache : Yes
Make use of C2 pointers : No
Read offset correction : 6
Overread into Lead-In and Lead-Out : No
Fill up missing offset samples with silence : Yes
Delete leading and trailing silent blocks : No
Null samples used in CRC calculations : Yes
Used interface : Native Win32 interface for Win NT & 2000
Used output format : User Defined Encoder
Selected bitrate : 1024 kBit/s
Quality : High
Add ID3 tag : No
Command line compressor : E:\toBeShared\flac.exe
Additional command line options : -8 -V
TOC of the extracted CD
Track | Start | Length | Start sector | End sector
---------------------------------------------------------
1 | 0:00.00 | 3:19.03 | 0 | 14927
2 | 3:19.03 | 3:44.19 | 14928 | 31746
3 | 7:03.22 | 3:11.43 | 31747 | 46114
4 | 10:14.65 | 4:54.03 | 46115 | 68167
5 | 15:08.68 | 5:49.25 | 68168 | 94367
6 | 20:58.18 | 3:05.30 | 94368 | 108272
7 | 24:03.48 | 5:34.74 | 108273 | 133396
8 | 29:38.47 | 4:47.17 | 133397 | 154938
9 | 34:25.64 | 3:28.60 | 154939 | 170598
10 | 37:54.49 | 4:49.11 | 170599 | 192284
11 | 42:43.60 | 7:20.08 | 192285 | 225292
Range status and errors
Selected range
Filename E:\toBeShared\Новая папка\Håkan Hellström - 2 steg från paradise.wav
Peak level 99.9 %
Extraction speed 1.8 X
Range quality 99.9 %
Test CRC 7223D728
Copy CRC 7223D728
Copy OK
No errors occurred
AccurateRip summary
Track 1 accurately ripped (confidence 35) [6D05709D] (AR v2)
Track 2 accurately ripped (confidence 36) [4FBE2E62] (AR v2)
Track 3 accurately ripped (confidence 36) [CF3E6B45] (AR v2)
Track 4 accurately ripped (confidence 35) [84D4BE46] (AR v2)
Track 5 accurately ripped (confidence 36) [CBD33074] (AR v2)
Track 6 accurately ripped (confidence 35) [D2909F23] (AR v2)
Track 7 accurately ripped (confidence 36) [DDB4B39F] (AR v2)
Track 8 accurately ripped (confidence 36) [FB82EF6E] (AR v2)
Track 9 accurately ripped (confidence 36) [437F0946] (AR v2)
Track 10 accurately ripped (confidence 36) [49220F76] (AR v2)
Track 11 accurately ripped (confidence 33) [CA895FD8] (AR v2)
All tracks accurately ripped
End of status report
---- CUETools DB Plugin V2.1.6
[CTDB TOCID: nLGXQinbSZXucfj8mcURdLRdZXo-] found
Submit result: nLGXQinbSZXucfj8mcURdLRdZXo- has been confirmed
Track | CTDB Status
1 | (40/40) Accurately ripped
2 | (40/40) Accurately ripped
3 | (40/40) Accurately ripped
4 | (40/40) Accurately ripped
5 | (39/40) Accurately ripped
6 | (38/40) Accurately ripped
7 | (40/40) Accurately ripped
8 | (40/40) Accurately ripped
9 | (40/40) Accurately ripped
10 | (39/40) Accurately ripped
11 | (39/40) Accurately ripped
==== Log checksum 449E0610FF1CBD753441678BBCAD738102434B950638F1681D42C44147F990F0 ====
------------------------------------------------------------
Exact Audio Copy V1.3 from 2. September 2016
EAC extraction logfile from 16. January 2020, 0:36
Håkan Hellström / 2 steg från paradise
Used drive : SlimtypeeBAU108 6 L Adapter: 1 ID: 0
Read mode : Secure
Utilize accurate stream : Yes
Defeat audio cache : Yes
Make use of C2 pointers : No
Read offset correction : 6
Overread into Lead-In and Lead-Out : No
Fill up missing offset samples with silence : Yes
Delete leading and trailing silent blocks : No
Null samples used in CRC calculations : Yes
Used interface : Native Win32 interface for Win NT & 2000
Used output format : User Defined Encoder
Selected bitrate : 1024 kBit/s
Quality : High
Add ID3 tag : No
Command line compressor : E:\toBeShared\flac.exe
Additional command line options : -8 -V
TOC of the extracted CD
Track | Start | Length | Start sector | End sector
---------------------------------------------------------
1 | 0:00.00 | 3:19.03 | 0 | 14927
2 | 3:19.03 | 3:44.19 | 14928 | 31746
3 | 7:03.22 | 3:11.43 | 31747 | 46114
4 | 10:14.65 | 4:54.03 | 46115 | 68167
5 | 15:08.68 | 5:49.25 | 68168 | 94367
6 | 20:58.18 | 3:05.30 | 94368 | 108272
7 | 24:03.48 | 5:34.74 | 108273 | 133396
8 | 29:38.47 | 4:47.17 | 133397 | 154938
9 | 34:25.64 | 3:28.60 | 154939 | 170598
10 | 37:54.49 | 4:49.11 | 170599 | 192284
11 | 42:43.60 | 7:20.08 | 192285 | 225292
Range status and errors
Selected range
Filename E:\toBeShared\Новая папка\Håkan Hellström - 2 steg från paradise.wav
Peak level 99.9 %
Extraction speed 1.8 X
Range quality 99.9 %
Test CRC 7223D728
Copy CRC 7223D728
Copy OK
No errors occurred
AccurateRip summary
Track 1 accurately ripped (confidence 35) [6D05709D] (AR v2)
Track 2 accurately ripped (confidence 36) [4FBE2E62] (AR v2)
Track 3 accurately ripped (confidence 36) [CF3E6B45] (AR v2)
Track 4 accurately ripped (confidence 35) [84D4BE46] (AR v2)
Track 5 accurately ripped (confidence 36) [CBD33074] (AR v2)
Track 6 accurately ripped (confidence 35) [D2909F23] (AR v2)
Track 7 accurately ripped (confidence 36) [DDB4B39F] (AR v2)
Track 8 accurately ripped (confidence 36) [FB82EF6E] (AR v2)
Track 9 accurately ripped (confidence 36) [437F0946] (AR v2)
Track 10 accurately ripped (confidence 36) [49220F76] (AR v2)
Track 11 accurately ripped (confidence 33) [CA895FD8] (AR v2)
All tracks accurately ripped
End of status report
---- CUETools DB Plugin V2.1.6
[CTDB TOCID: nLGXQinbSZXucfj8mcURdLRdZXo-] found
Submit result: nLGXQinbSZXucfj8mcURdLRdZXo- has been confirmed
Track | CTDB Status
1 | (40/40) Accurately ripped
2 | (40/40) Accurately ripped
3 | (40/40) Accurately ripped
4 | (40/40) Accurately ripped
5 | (39/40) Accurately ripped
6 | (38/40) Accurately ripped
7 | (40/40) Accurately ripped
8 | (40/40) Accurately ripped
9 | (40/40) Accurately ripped
10 | (39/40) Accurately ripped
11 | (39/40) Accurately ripped
==== Log checksum 449E0610FF1CBD753441678BBCAD738102434B950638F1681D42C44147F990F0 ====

Содержание индексной карты (.CUE)

REM GENRE Pop
REM DATE 2010
REM DISCID 800BBB0B
REM COMMENT "ExactAudioCopy v1.3"
PERFORMER "Håkan Hellström"
TITLE "2 steg fran paradise"
REM COMPOSER ""
FILE "Håkan Hellström - 2 steg från paradise.flac" WAVE
TRACK 01 AUDIO
TITLE "Det här är min tid"
PERFORMER "Håkan Hellström"
REM COMPOSER ""
INDEX 01 00:00:00
TRACK 02 AUDIO
TITLE "Saknade te havs"
PERFORMER "Håkan Hellström"
REM COMPOSER ""
INDEX 01 03:19:03
TRACK 03 AUDIO
TITLE "Shelley"
PERFORMER "Håkan Hellström"
REM COMPOSER ""
INDEX 01 07:03:22
TRACK 04 AUDIO
TITLE "River en vacker dröm"
PERFORMER "Håkan Hellström"
REM COMPOSER ""
INDEX 01 10:14:65
TRACK 05 AUDIO
TITLE "2 steg från paradise"
PERFORMER "Håkan Hellström"
REM COMPOSER ""
INDEX 01 15:08:68
TRACK 06 AUDIO
TITLE "Jag vet vilken dy hon varit i"
PERFORMER "Håkan Hellström"
REM COMPOSER ""
INDEX 00 20:56:47
INDEX 01 20:58:18
TRACK 07 AUDIO
TITLE "Dom där jag kommer från"
PERFORMER "Håkan Hellström"
REM COMPOSER ""
INDEX 01 24:03:48
TRACK 08 AUDIO
TITLE "Det dom aldrig nämner"
PERFORMER "Håkan Hellström"
REM COMPOSER ""
INDEX 01 29:38:47
TRACK 09 AUDIO
TITLE "Vid protesfabrikens stängsel"
PERFORMER "Håkan Hellström"
REM COMPOSER ""
INDEX 00 34:24:18
INDEX 01 34:25:64
TRACK 10 AUDIO
TITLE "Man måste dö några gånger innan man kan leva"
PERFORMER "Håkan Hellström"
REM COMPOSER ""
INDEX 01 37:54:49
TRACK 11 AUDIO
TITLE "Du är snart där"
PERFORMER "Håkan Hellström"
REM COMPOSER ""
INDEX 00 42:41:16
INDEX 01 42:43:60
Профиль [ЛС]
Показать сообщения:    

Текущее время: 18-Окт 23:44

Часовой пояс: UTC ± 0



Вы не можете начинать темы
Вы не можете отвечать на сообщения
Вы не можете редактировать свои сообщения
Вы не можете удалять свои сообщения
Вы не можете голосовать в опросах
Вы не можете прикреплять файлы к сообщениям
Вы не можете скачивать файлы