Статистика раздачи
Размер:  5,42 GB   |    Зарегистрирован:  9 месяцев 2 дня   |    Скачан:  0 раз

Полного источника не было: Никогда

 
   
 
 

Gomer ®

Пол:
Не указан
Стаж:
9 месяцев 3 дня
Сообщений:
40

Гриффины / Family Guy
Страна: США
Жанр: Комедия, Пародия, Сатира
Продолжительность: ~20 минут
Год выпуска: 2011-2012
Перевод: Профессиональный (многоголосый закадровый)
Русские субтитры: нет
Режиссёр: Сет МакФарлейн
Роли озвучивали: Олег Форостенко - Питер, Кливленд и другие.
Илья Хвостиков - Брайан, Стьюи, Куагмир и другие.
Людмила Ильина - все женские и детские роли.
Описание: "Гриффины" (Family Guy) - анимационное ТВ-Шоу, созданное Сетом МакФерлайном (Seth MacFarlane) для телеканала FOX. Как нетрудно догадаться, главными героями шоу является семейка Гриффинов: тупой, но полный сумашедших идей, составляющих львиную долю шуток сериала, отец семейства Питер; его любящя и терпеливая жена Лойс, всеми силами пытающаяся превратить Гриффинов в нормальную семью; их интеллектуально развитый не по годам, вынашивающий идею мирового господства младший сын Стьюи; дочь-ботаник, обречённая из-за этого на одиночество и непонимание как в школе так и дома, Мэг; и 13-ти летний отсталый в развитии лет на 10, сын Крис. Также полноценным членом семьи является пёс Брайн - склонный к меланхолии эстет, спокойно наблюдающий с бокалом вина в лапе над приключениями Питера и остальных членов семьи (и это при всём притом, что остальные собаки в сериале не являются очеловеченными).
Список серий:
01. Lottery Fever (Лотерейная лихорадка)
02. Seahorse Seashell Party (Ураган)
03. Screams of Silence The Story of Brenda Q (Крики тишины: История Бренды Куагмир)
04. Stewie Goes for a Drive (Стьюи Хочет Покататься)
05. Back to Pilot (Возвращение в пилотную серию)
06. Thanksgiving (День Благодарения)
07. Amish Guy (Гриффины и амиши)
08. Cool Hand Peter (Хладнокровный Питер)
09. Grumpy Old Man (Сварливый Старик)
10. Quagmire and Meg (Куагмир и Мег)
11. The Blind Side (Слепая сторона)
12. Livin' on a Prayer (Жизнь по молитве)
13. Tom Tucker: The Man and His Dream (Том Такер: Человек с Мечтой)
14. Be Careful What You Fish For (Осторожно - рыба)
15. Burning Down the Bayit (Поджарим Еврея)
16. Killer Queen (Queen-убийца)
17. Forget-Me-Not (Незабудка)
18. You Can't Do That On Television, Peter (Так не ведут себя на экране, Питер)
19. Mr. and Mrs. Stewie (Мистер и миссис Стьюи)
20. Leggo My Meg-O (Мег-априключение в Париже)
21. Tea Peter (Чайный Питер)
22. Family Guy Viewer Mail #2 (По заявкам зрителей, выпуск № 2)
23. Internal Affairs (Внутренние дела)
Доп. информация: Новый сезон мультсериала "Гриффины" в переводе 2х2, уже третий в нынешнем телесезоне канала. Новый сезон озвучивают новые актёры, тем не менее озвучка очень даже неплохая, рекомендую к просмотру.
Также спасибо человеку с ником "darba", предоставившему записи 2-4 серий нового сезона, без которых раздача могла бы не начаться.
19 серия - в переводе Филизы, так как 2х2 уже точно не будет её показывать (с декабря 2014 по программе вместо этой серии теперь всегда повторяют 4). Видимо, потеряли её
Ссылка на предыдущие или альтернативные раздачи: http://cybertorrent.ru/tracker.php?nm=Family%20Guy
Качество: SATRip
Формат: AVI
Видео: 704х576 (2-4 серии - 640х480) (19 серия - 624х352)
Аудио: 192 кбит/сек
Субтитры: отсутствуют

Подробные технические данные

General
Complete name : C:\Documents and Settings\Admin\Мои документы\Гриффины 10\05. Back to the Pilot.avi
Format : AVI
Format/Info : Audio Video Interleave
File size : 248 MiB
Duration : 20mn 26s
Overall bit rate : 1 698 Kbps
Writing application : Lavf52.61.0
Video
ID : 0
Format : MPEG-4 Visual
Format profile : Simple@L1
Format settings, BVOP : No
Format settings, QPel : No
Format settings, GMC : No warppoints
Format settings, Matrix : Default (H.263)
Codec ID : XVID
Codec ID/Hint : XviD
Duration : 20mn 26s
Bit rate : 1 494 Kbps
Width : 704 pixels
Height : 576 pixels
Display aspect ratio : 4:3
Frame rate : 25.000 fps
Standard : PAL
Color space : YUV
Chroma subsampling : 4:2:0
Bit depth : 8 bits
Scan type : Progressive
Compression mode : Lossy
Bits/(Pixel*Frame) : 0.147
Stream size : 218 MiB (88%)
Writing library : Lavc52.66.0
Audio
ID : 1
Format : MPEG Audio
Format version : Version 1
Format profile : Layer 3
Mode : Joint stereo
Mode extension : MS Stereo
Codec ID : 55
Codec ID/Hint : MP3
Duration : 20mn 26s
Bit rate mode : Constant
Bit rate : 192 Kbps
Channel(s) : 2 channels
Sampling rate : 44.1 KHz
Compression mode : Lossy
Stream size : 28.1 MiB (11%)
Alignment : Aligned on interleaves
Interleave, duration : 26 ms (0.65 video frame)

Скриншоты



[cybertorrent.ru].t1576.torrent 
Торрент: Зарегистрирован [ 2018-02-16 08:13 ] · 89DC9F827C3BB101E8C76FA93C907027C01460EE

Скачать .torrent

Скачать

15 KB

Статус: проверено
Скачан: 0 раз
Размер: 5,42 GB
Профиль [ЛС]
Показать сообщения:    

Текущее время: 18-Ноя 22:41

Часовой пояс: UTC ± 0



Вы не можете начинать темы
Вы не можете отвечать на сообщения
Вы не можете редактировать свои сообщения
Вы не можете удалять свои сообщения
Вы не можете голосовать в опросах
Вы не можете прикреплять файлы к сообщениям
Вы можете скачивать файлы
Torrents24.ru открытый BitTorrent Torrents24.pl открытый BitTorrent CyberTorrent.ru открытый BitTorrent BtList.ru рейтинг BitTorrent трекеров Яндекс.Метрика