Статистика раздачи
Размер:  22,51 GB   |    Зарегистрирован:  7 месяцев 4 дня   |    Скачан:  0 раз

Полного источника не было: Никогда

 
   
 
 

karapuz ®

Пол:
Не указан
Стаж:
7 месяцев 5 дней
Сообщений:
128

Скуби-Ду! Корпорация "Тайна" / Scooby-Doo! Mystery Incorporated
Страна: США
Жанр: Мультипликация
Продолжительность: ~23 мин
Год выпуска: 2012-2013
Перевод: Профессиональный (дублированный) "Пифагор" по заказу WB
Русские субтитры: на не переведенные места в s02e04, s02e12
Режиссёр: Курт Геда / Curt Geda
Роли озвучивали: Мэттью Лиллард, Фрэнк Уэлкер, Кейси Касем, Грей Делайл, Минди Кон, Патрик Уорбертон
Описание: В этом новом мультипликационном сериале Скуби-Ду и его команда - Шегги, Фред, Дафна и Велма пытаются рагадать тайны города Кристальная Бухта, города со свой историей, полной жутких сверхъестественных событий.
Релиз от -
Качество: WEB-DLRip 1080p
Формат: MKV
Видео: AVC, 1920x1080 (16:9), 23.976 fps, 4 994 Kbps (0.100 bit/pixel)
Аудио 1: AC-3, 48.0 KHz, 2 ch, 192 Kbps, CBR (Russian)
Аудио 2: AC-3, 48.0 KHz, 2 ch, 192 Kbps, CBR (English)
Субтитры: отсутствуют
Семпл: Забираем тут
Ссылка на предыдущие и альтернативные раздачи: Тут

Список серий:

1 - The Night The Clown Cried / В ночь когда плакал клоун Часть 1
2 - House of The Nightmare Witch / Дом ведьмы из ночного кошмара
3 - The Night The Clown Cried II Tears of Doom / В ночь когда плакал клоун Часть 2
4 - Web of The Dreamweaver / Сеть паука грез
5 - The Hodag of Horror / Ужасный Ходак
6 - Art of Darkness / Искусство темноты
7 - The Gathering Gloom / Сборище во мраке
8 - The Night on Haunted Mountain / Ночь на горе призраков
9 - Grim Judgement / Жестокое наказание
10 - Night Terrors / Ночной террор
11 - The Midnight Zone / Полуночная зона
12 - Scarebear / Страшный медведь
13 - Wrath of The Krampus / Гнев Крампуса
14 - Heart of Evil / Сердце зла
15 - Theater of Doom / Театр страха
16 - Aliens Among Us / Пришельцы среди нас
17 - The Horrible Herd / Жуткое стадо
18 - Dance of The Undead / Танцы зомби
19 - The Devouring / Поглощение
20 - Stand and Deliver / Кошелек или жизнь
21 - The Man in The Mirror / Человек в зеркале
22 - Nightmare in Red / Кошмар в красном
23 - Dark Night of The Hunters / Темная ночь для охоты
24 - Gates of Gloom / Ворота в сумрак
25 - Through The Curtain / Сквозь шторы
26 - Come Undone / Все перевернулось

Подробные технические данные

Общее
Уникальный идентификатор : 208865977527564468936981752786928159281 (0x9D221FC1A2E1B0B0B8C6DF3CD83A4A31)
Полное имя : H:\video\Scooby-Doo! Mystery Incorporated 2 season 1080p\S02E16 Aliens Among Us 1080p.mkv
Формат : Matroska
Версия формата : Version 4 / Version 2
Размер файла : 885 Мбайт
Продолжительность : 22 м.
Общий поток : 5487 Кбит/сек
Дата кодирования : UTC 2013-05-23 08:40:37
Программа кодирования : mkvmerge v6.2.0 ('Promised Land') built on Apr 28 2013 12:22:01
Библиотека кодирования : libebml v1.3.0 + libmatroska v1.4.0
Видео
Идентификатор : 1
Формат : AVC
Формат/Информация : Advanced Video Codec
Профиль формата : High@L4.0
Параметр CABAC формата : Да
Параметр ReFrames формата : 4 кадра
Идентификатор кодека : V_MPEG4/ISO/AVC
Продолжительность : 22 м.
Битрейт : 4994 Кбит/сек
Ширина : 1920 пикселей
Высота : 1080 пикселей
Соотношение сторон : 16:9
Режим частоты кадров : Постоянный
Частота кадров : 23,976 кадра/сек
Цветовое пространство : YUV
Субдискретизация насыщенности : 4:2:0
Битовая глубина : 8 бит
Тип развёртки : Прогрессивная
Бит/(Пиксели*Кадры) : 0.100
Размер потока : 805 Мбайт (91%)
Язык : English
Default : Да
Forced : Нет
Основные цвета : BT.709
Характеристики трансфера : BT.709
Коэффициенты матрицы : BT.709
Аудио #1
Идентификатор : 2
Формат : AC-3
Формат/Информация : Audio Coding 3
Расширение режима : CM (complete main)
Параметр Endianness формата : Big
Идентификатор кодека : A_AC3
Продолжительность : 22 м.
Вид битрейта : Постоянный
Битрейт : 192 Кбит/сек
Каналы : 2 канала
Расположение каналов : Front: L R
Частота : 48,0 КГц
Битовая глубина : 16 бит
Метод сжатия : С потерями
Размер потока : 31,0 Мбайт (3%)
Заголовок : Дубляж
Язык : Russian
Default : Да
Forced : Нет
Аудио #2
Идентификатор : 3
Формат : AC-3
Формат/Информация : Audio Coding 3
Расширение режима : CM (complete main)
Параметр Endianness формата : Big
Идентификатор кодека : A_AC3
Продолжительность : 22 м.
Вид битрейта : Постоянный
Битрейт : 192 Кбит/сек
Каналы : 2 канала
Расположение каналов : Front: L R
Частота : 48,0 КГц
Битовая глубина : 16 бит
Метод сжатия : С потерями
Размер потока : 31,0 Мбайт (3%)
Язык : English
Default : Нет
Forced : Нет

Скриншоты


[cybertorrent.ru].t1577.torrent 
Торрент: Зарегистрирован [ 2018-02-16 08:13 ] · 5A44D81B0E63F209DE068F931E936169E738C3E9

Скачать .torrent

Скачать

115 KB

Статус: проверено
Скачан: 0 раз
Размер: 22,51 GB
Профиль [ЛС]
Показать сообщения:    

Текущее время: 20-Сен 14:16

Часовой пояс: UTC ± 0



Вы не можете начинать темы
Вы не можете отвечать на сообщения
Вы не можете редактировать свои сообщения
Вы не можете удалять свои сообщения
Вы не можете голосовать в опросах
Вы не можете прикреплять файлы к сообщениям
Вы можете скачивать файлы
Torrents24.ru открытый BitTorrent Torrents24.pl открытый BitTorrent CyberTorrent.ru открытый BitTorrent BtList.ru рейтинг BitTorrent трекеров Яндекс.Метрика