Статистика раздачи
Размер:  1,37 GB   |    Зарегистрирован:  3 месяца 12 дней   |    Скачан:  0 раз

Полного источника не было: Никогда

 
   
 
 

lopster ®

Пол:
Не указан
Стаж:
3 месяца 12 дней
Сообщений:
612

Быть влюблённым
Жанр: музыкальная комедия
Год выпуска: 1992
Продолжительность: 01:17:12
Режиссёр: Олег Анофриев
В ролях: Галина Польских, Светлана Немоляева, Александр Лазарев старший, Владимир Гусев
Описание: Заботливая Светлана хочет выдать замуж свою близкую подругу Наталью и тайно отправляет ее данные в бюро знакомств. Через некоторое время на пороге квартиры ни о чем не подозревающей Светланы появляются двое симпатичных незнакомцев...
Доп. информация: Оцифровка VHS (личный архив) и получение VHSRip alenavova
Эксклюзив для rutracker.org. При размещении данного релиза на других сайтах ссылка на автора
Релиз
Сэмпл: https://yadi.sk/i/6B-V66iG3BAFHG
Качество видео: VHSRip
Формат видео: AVI
Видео: 704x544 (1.29:1), 25 fps, XviD build 73 ~2332 kbps avg, 0.24 bit/pixel
Аудио: 48 kHz, AC3 Dolby Digital, 2/0 (L,R) ch, ~192 kbps

MediaInfo

Быть влюблённым [by alenavova].avi
Format : AVI
Format/Info : Audio Video Interleave
File size : 1.37 GiB
Duration : 1 h 17 min
Overall bit rate : 2 534 kb/s
Movie name : Быть влюблённым [by alenavova]
Director : by alenavova
Writing application : VirtualDubMod 1.5.10.3 | www.virtualdub-fr.org || (build 2550/release)
Copyright : Edich2
Comment : RuTracker.org
Video
ID : 0
Format : MPEG-4 Visual
Format profile : Advanced Simple@L5
Format settings, BVOP : 1
Format settings, QPel : No
Format settings, GMC : No warppoints
Format settings, Matrix : Custom
Codec ID : XVID
Codec ID/Hint : XviD
Duration : 1 h 17 min
Bit rate : 2 333 kb/s
Width : 704 pixels
Height : 544 pixels
Display aspect ratio : 1.294
Frame rate : 25.000 FPS
Color space : YUV
Chroma subsampling : 4:2:0
Bit depth : 8 bits
Scan type : Progressive
Compression mode : Lossy
Bits/(Pixel*Frame) : 0.244
Stream size : 1.26 GiB (92%)
Writing library : XviD 73
Audio
ID : 1
Format : AC-3
Format/Info : Audio Coding 3
Mode extension : CM (complete main)
Format settings, Endianness : Big
Codec ID : 2000
Duration : 1 h 17 min
Bit rate mode : Constant
Bit rate : 192 kb/s
Channel(s) : 2 channels
Channel positions : Front: L R
Sampling rate : 48.0 kHz
Frame rate : 31.250 FPS (1536 spf)
Compression mode : Lossy
Stream size : 106 MiB (8%)
Alignment : Split accross interleaves
Interleave, duration : 40 ms (1.00 video frame)
Interleave, preload duratio : 500 ms

Скриншоты


[cybertorrent.ru].t158.torrent 
Торрент: Зарегистрирован [ 2018-02-15 13:57 ] · AEF149D56BA4BBCFA79140C67B9EC508F35DD910

Скачать .torrent

Скачать

14 KB

Статус: проверено
Скачан: 0 раз
Размер: 1,37 GB
Профиль [ЛС]
Показать сообщения:    

Текущее время: 28-Май 08:12

Часовой пояс: UTC ± 0



Вы не можете начинать темы
Вы не можете отвечать на сообщения
Вы не можете редактировать свои сообщения
Вы не можете удалять свои сообщения
Вы не можете голосовать в опросах
Вы не можете прикреплять файлы к сообщениям
Вы можете скачивать файлы