Статистика раздачи
Размер:  1,71 GB   |    Зарегистрирован:  5 месяцев 4 дня   |    Скачан:  0 раз

Полного источника не было: Никогда

 
   
 
 

Zima ®

Пол:
Не указан
Стаж:
5 месяцев 5 дней
Сообщений:
42

Три богатыря на дальних берегах
Страна: Россия
Студия: кинокомпания CTB, студия Мельница
Жанр: мультфильм, приключения
Год выпуска: 2012
Продолжительность: 01:11:18
Навигация по главам: есть
Субтитры: нет
Режиссер: Константин Феоктистов
В ролях: Николай Губенко, Иван Цехмистренко, Андрей Леонов, Алексей Колган, Александр Адабашьян, Георгий Данелия, Игорь Кваша, Вахтанг Кикабидзе, Галина Данелия-Юркова, Полина Кутепова
Описание: На этот раз Алеша Попович, Добрыня Никитич и Илья Муромец, благодаря козням коварной Бабы Яги, оказываются за семью морями на острове, на котором живут туземцы и страшный Гомума. В их отсутствие купец Колыван решают вместе с Бабой-Ягой захватить царство и забрать власть у князя Киевского. На помощь незадачливому правителю приходит конь Юлий, а также жены богатырей и их многочисленные родственники. Словом, богатырей и зрителей ждут приключения на дальних берегах, обыкновенные и невероятные.

Релиз: fanatus
Качество видео: BDRip 720p
Исходник: Blu-ray 1080p [IRONCLUB]
Контейнер: MKV
Видео: MPEG-4 AVC, 2800 kbps , 1280x720 (16:9), 23.976 fps, 0.127 bit/pixel
Аудио: AC3, 6 ch, 48 kHz, 640 kbps

MediaInfo

General
Unique ID : 204064546088135858320476589786782737264 (0x998566E8CF43C444952910BC5903A370)
Complete name : D:\Tri.bogatyrja.na.dalnih.beregah.2012.x264.BDRip.720p.fanatus.mkv
Format : Matroska
Format version : Version 2
File size : 1.71 GiB
Duration : 1h 11mn
Overall bit rate : 3 443 Kbps
Movie name : Tri bogatyrja (2012) - fanatus
Encoded date : UTC 2013-05-25 07:45:15
Writing application : mkvmerge v3.4.0 ('Rapunzel') сборка от May 15 2010 09:38:20
Writing library : libebml v0.8.0 + libmatroska v0.9.0
Video
ID : 1
Format : AVC
Format/Info : Advanced Video Codec
Format profile : High@L4.1
Format settings, CABAC : Yes
Format settings, ReFrames : 10 frames
Codec ID : V_MPEG4/ISO/AVC
Duration : 1h 11mn
Bit rate : 2 800 Kbps
Width : 1 280 pixels
Height : 720 pixels
Display aspect ratio : 16:9
Frame rate : 23.976 fps
Color space : YUV
Chroma subsampling : 4:2:0
Bit depth : 8 bits
Scan type : Progressive
Bits/(Pixel*Frame) : 0.127
Stream size : 1.36 GiB (79%)
Title : Tri bogatyrja (2012)
Writing library : x264 core 132 r2323+704+51 d571b1c tMod [8-bit@all X86]
Encoding settings : cabac=1 / ref=10 / deblock=1:-2:-2 / analyse=0x3:0x113 / me=tesa / subme=11 / psy=1 / fade_compensate=0.00 / psy_rd=0.80:0.05 / mixed_ref=1 / me_range=48 / chroma_me=1 / trellis=2 / 8x8dct=1 / cqm=0 / deadzone=21,11 / fast_pskip=0 / chroma_qp_offset=-3 / threads=16 / lookahead_threads=4 / sliced_threads=0 / nr=0 / decimate=0 / interlaced=0 / bluray_compat=0 / constrained_intra=0 / fgo=0 / bframes=12 / b_pyramid=2 / b_adapt=2 / b_bias=0 / direct=3 / weightb=1 / open_gop=0 / weightp=2 / keyint=240 / keyint_min=23 / scenecut=40 / intra_refresh=0 / rc_lookahead=240 / rc=2pass / mbtree=0 / bitrate=2800 / ratetol=1.0 / qcomp=0.70 / qpmin=0 / qpmax=69 / qpstep=4 / cplxblur=20.0 / qblur=0.5 / vbv_maxrate=50000 / vbv_bufsize=62500 / nal_hrd=none / ip_ratio=1.40 / pb_ratio=1.30 / aq=4:0.80 / aq-sensitivity=10.00 / aq-factor=1.00:1.00:1.00 / aq2=0 / aq3=0
Language : Russian
Default : Yes
Forced : No
Matrix coefficients : BT.709-5, BT.1361, IEC 61966-2-4 709, SMPTE RP177
Audio
ID : 2
Format : AC-3
Format/Info : Audio Coding 3
Mode extension : CM (complete main)
Format settings, Endianness : Big
Codec ID : A_AC3
Duration : 1h 11mn
Bit rate mode : Constant
Bit rate : 640 Kbps
Channel(s) : 6 channels
Channel positions : Front: L C R, Side: L R, LFE
Sampling rate : 48.0 KHz
Bit depth : 16 bits
Compression mode : Lossy
Stream size : 326 MiB (19%)
Title : Original
Language : Russian
Default : Yes
Forced : No
Menu
00:00:00.000 : :Chapter 01
00:05:42.342 : :Chapter 02
00:10:39.597 : :Chapter 03
00:16:36.704 : :Chapter 04
00:24:05.861 : :Chapter 05
00:30:40.004 : :Chapter 06
00:35:16.364 : :Chapter 07
00:42:07.983 : :Chapter 08
00:49:30.759 : :Chapter 09
00:54:38.817 : :Chapter 10
01:00:39.761 : :Chapter 11
01:06:27.233 : :Chapter 12

x264 [info]

x264 [info]: 1280x720p 1:1 @ 24000/1001 fps (cfr)
x264 [info]: frame I:1182 Avg QP:11.67 size:183993
x264 [info]: frame P:28751 Avg QP:15.79 size: 26916
x264 [info]: frame B:72641 Avg QP:16.80 size: 6971
x264 [info]: consecutive B-frames: 5.3% 6.6% 13.0% 43.5% 15.5% 8.6% 2.0% 1.1% 1.1% 0.6% 0.6% 0.9% 1.2%
x264 [info]: mb I I16..4: 12.8% 41.9% 45.2%
x264 [info]: mb P I16..4: 1.0% 2.5% 2.3% P16..4: 18.8% 14.0% 9.0% 0.0% 0.0% skip:52.4%
x264 [info]: mb B I16..4: 0.1% 0.2% 0.2% B16..8: 14.0% 6.3% 2.4% direct: 1.7% skip:75.0% L0:44.3% L1:47.0% BI: 8.7%
x264 [info]: 8x8 transform intra:41.6% inter:27.7%
x264 [info]: direct mvs spatial:96.2% temporal:3.8%
x264 [info]: coded y,uvDC,uvAC intra: 73.2% 76.1% 69.3% inter: 8.0% 9.4% 7.3%
x264 [info]: i16 v,h,dc,p: 60% 17% 11% 13%
x264 [info]: i8 v,h,dc,ddl,ddr,vr,hd,vl,hu: 12% 17% 16% 7% 8% 7% 9% 9% 14%
x264 [info]: i4 v,h,dc,ddl,ddr,vr,hd,vl,hu: 14% 13% 11% 9% 11% 10% 10% 9% 12%
x264 [info]: i8c dc,h,v,p: 44% 32% 16% 7%
x264 [info]: Weighted P-Frames: Y:1.4% UV:1.1%
x264 [info]: ref P L0: 56.5% 3.9% 15.2% 6.7% 4.7% 4.1% 3.0% 2.0% 1.7% 1.8% 0.5% 0.0%
x264 [info]: ref B L0: 71.5% 11.8% 6.3% 3.0% 2.4% 2.0% 1.6% 0.8% 0.5%
x264 [info]: ref B L1: 93.2% 6.8%
x264 [info]: kb/s:2800.66
x264 [info]: encoded 102574 frames, 2.490 fps, 2800.67 kb/s, 1428.3 MB

Скриншот c названием фильма

Скриншоты

Source vs Rip




[cybertorrent.ru].t1580.torrent 
Торрент: Зарегистрирован [ 2018-02-16 08:13 ] · 3E2D30B74B99324D32D6F2361EA1566F0C63A0F4

Скачать .torrent

Скачать

18 KB

Статус: проверено
Скачан: 0 раз
Размер: 1,71 GB
Профиль [ЛС]
Показать сообщения:    

Текущее время: 20-Июл 14:10

Часовой пояс: UTC ± 0



Вы не можете начинать темы
Вы не можете отвечать на сообщения
Вы не можете редактировать свои сообщения
Вы не можете удалять свои сообщения
Вы не можете голосовать в опросах
Вы не можете прикреплять файлы к сообщениям
Вы можете скачивать файлы