Статистика раздачи
Размер:  2,04 GB   |    Зарегистрирован:  10 месяцев   |    Скачан:  0 раз

Полного источника не было: Никогда

 
   
 
 

android ®

Пол:
Не указан
Стаж:
10 месяцев
Сообщений:
79

Черепашки-мутанты-ниндзя
Teenage Mutant Ninja Turtles / Teenage Mutant Hero Turtles
Страна: США
Жанр: Мультсериал, приключения, комедия
Продолжительность: 2:54:39 (8 x 21 мин.)
Год выпуска: 1988
Перевод: Одноголосый закадровый - Action Studio Ленинград
Русские субтитры: нет-Режиссёр: Билл Вульф /Bill Wolf/-Описание: Обожаемая детьми во всем мире героическая четверка, полная неукротимой энергии, отправляется в мультприключения, расправляясь с негодяями, выслеживая злодеев и поглощая пиццу в безостановочном темпе.-Доп. информация::
  • В начале 90-х, когда сериал был закуплен для трансляции в Великобритании, из серий были вырезаны сцены, в которых Микеланджело использует нунчаки, а сам сериал окрестили Teenage Mutant Hero Turtles ("Черепашки-мутанты-герои"). Под этим названием он был экспортирован в ряд европейских стран, в том числе в Германию. Когда в конце 2000-х немцы начали издавать сериал на DVD, они изменили британское название на лаконичное Ninja Turtles ("Черепашки-ниндзя"), хотя сделали это несколько топорно (см. скриншот).
  • Перевод Action Studio был сделан поверх немецкого дубляжа, поэтому для синхронизации использованы именно немецкие варианты серий.-Список серий:
    #2.06: Монстры из пиццы / Case of the Killer Pizzas / Die Monsterpizzas
    #2.07: Ароматная ловушка / Enter: The Fly / Die Duftfalle
    #2.08: Нашествие лягушек / Invasion of the Punk Frogs / Die Frösche kommen
    #2.09: Ключ власти / Splinter No More / Der Schlüssel zur Macht
    #2.10: Роботы угрожают / New York's Shiniest / Die Robotergefahr
    #2.11: Летающие подростки / Teenagers from Dimension X / Die fliegenden Teenager
    #3.05: Город взлетает на воздух / Sky Turtles / Eine Stadt geht in die Luft
    #3.18: Оригинал или подделка? / Cowabunga Shredhead / Original oder Fälschung?
    -Качество: DVDRip
    Формат: AVI
    Видео: 640x480 (1.33:1), 25 fps, XviD build 65 ~1266 kbps avg, 0.16 bit/pixel
    Аудио #1: 48 kHz, AC3 Dolby Digital, 2/0 (L,R) ch, ~192.00 kbps avg (Action Studio Ленинград)
    Аудио #2: 48 kHz, AC3 Dolby Digital, 2/0 (L,R) ch, ~192.00 kbps avg (немецкий дубляж)

    Подробные технические данные

    General
    Complete name : D:\\Teenage Mutant Hero Turtles - 2x06 - Die Monsterpizzas [rus+ger] [RG Мультфильмы].avi
    Format : AVI
    Format/Info : Audio Video Interleave
    File size : 261 MiB
    Duration : 21mn 54s
    Overall bit rate : 1 666 Kbps
    Writing application : VirtualDubMod 1.5.10.2 (build 2540/release)
    Writing library : VirtualDubMod build 2540/release
    Video
    ID : 0
    Format : MPEG-4 Visual
    Format profile : Advanced Simple@L5
    Format settings, BVOP : 2
    Format settings, QPel : No
    Format settings, GMC : No warppoints
    Format settings, Matrix : Custom
    Codec ID : XVID
    Codec ID/Hint : XviD
    Duration : 21mn 54s
    Bit rate : 1 267 Kbps
    Width : 640 pixels
    Height : 480 pixels
    Display aspect ratio : 4:3
    Frame rate : 25.000 fps
    Color space : YUV
    Chroma subsampling : 4:2:0
    Bit depth : 8 bits
    Scan type : Progressive
    Compression mode : Lossy
    Bits/(Pixel*Frame) : 0.165
    Stream size : 199 MiB (76%)
    Writing library : XviD 65
    Audio #1
    ID : 1
    Format : AC-3
    Format/Info : Audio Coding 3
    Mode extension : CM (complete main)
    Format settings, Endianness : Big
    Codec ID : 2000
    Duration : 21mn 54s
    Bit rate mode : Constant
    Bit rate : 192 Kbps
    Channel(s) : 2 channels
    Channel positions : Front: L R
    Sampling rate : 48.0 KHz
    Bit depth : 16 bits
    Compression mode : Lossy
    Stream size : 30.1 MiB (12%)
    Alignment : Split accross interleaves
    Interleave, duration : 40 ms (1.00 video frame)
    Interleave, preload duration : 500 ms
    Audio #2
    ID : 2
    Format : AC-3
    Format/Info : Audio Coding 3
    Mode extension : CM (complete main)
    Format settings, Endianness : Big
    Codec ID : 2000
    Duration : 21mn 54s
    Bit rate mode : Constant
    Bit rate : 192 Kbps
    Channel(s) : 2 channels
    Channel positions : Front: L R
    Sampling rate : 48.0 KHz
    Bit depth : 16 bits
    Compression mode : Lossy
    Stream size : 30.1 MiB (12%)
    Alignment : Split accross interleaves
    Interleave, duration : 40 ms (1.00 video frame)
    Interleave, preload duration : 500 ms
    - -Релиз:
    multmir ..... оригинальные немецкие DVD
    StiviDgi ..... дороги Action Studio Ленинград
    Áлексис ..... синхронизация- Все раздачи мультсериала
    [cybertorrent.ru].t1585.torrent 
    Торрент: Зарегистрирован [ 2018-02-16 08:13 ] · 2E206703316A7E7401EAA74381C257548589F88F

    Скачать .torrent

    Скачать

    12 KB

    Статус: проверено
    Скачан: 0 раз
    Размер: 2,04 GB
  • Профиль [ЛС]
    Показать сообщения:    

    Текущее время: 16-Дек 08:29

    Часовой пояс: UTC ± 0



    Вы не можете начинать темы
    Вы не можете отвечать на сообщения
    Вы не можете редактировать свои сообщения
    Вы не можете удалять свои сообщения
    Вы не можете голосовать в опросах
    Вы не можете прикреплять файлы к сообщениям
    Вы можете скачивать файлы
    Torrents24.ru открытый BitTorrent Torrents24.pl открытый BitTorrent CyberTorrent.ru открытый BitTorrent BtList.ru рейтинг BitTorrent трекеров Яндекс.Метрика