Статистика раздачи
Размер:  1,46 GB   |    Зарегистрирован:  6 месяцев 20 дней   |    Скачан:  0 раз

Полного источника не было: Никогда

   
 

Гость ®

Пол:
Не указан

Юморист
Страна: Россия, Латвия, Чехия
Жанр: драма, биография
Год выпуска: 2018
Продолжительность: 01:42:00
Режиссёр: Михаил Идов
В ролях: Алексей Агранович, Юрий Колокольников, Яна Сексте, Вильма Кутавичюте, Семён Штейнберг, Алиса Хазанова, Павел Ильин, Полина Ауг, Юлия Ауг, Ольга Дибцева, Анатолий Котенёв

Описание: Главный герой фильма – успешный юморист Борис Аркадьев. На дворе 1984 год. Страна стоит на пороге перестройки. Герою не на что жаловаться. У него прекрасная семья, его обожают миллионы, а главное он на хорошем счету у людей из власти. Однако Аркадьеву не хватает свободы, как внешней, так и внутренней. Долгие годы ему приходится мириться с окружающим его миром и не говорить то о чем он действительно думает. В итоге вскоре герой из самого смешного человека страны превращается в самого опасного...

Кинопоиск
Sample
Качество видео: WEB-DLRip
Формат видео: AVI
Видео: 720x304 (2.37:1), 24.000 fps, XviD build 73 ~1657 kbps avg, 0.32 bit/pixel
Аудио: 48 kHz, AC3 Dolby Digital, 3/2 (L,C,R,l,r) + LFE ch, ~384 kbps

MediaInfo

General
Complete name : D:\Юморист.2018.WEB-DLRip.avi
Format : AVI
Format/Info : Audio Video Interleave
File size : 1.46 GiB
Duration : 1 h 42 min
Overall bit rate : 2 051 kb/s
Writing application : VirtualDubMod 1.5.10.3 | www.virtualdub-fr.org || (build 2550/release)
Writing library : VirtualDubMod build 2550/release
Video
ID : 0
Format : MPEG-4 Visual
Format profile : Advanced Simple@L5
Format settings : BVOP1
Format settings, BVOP : 1
Format settings, QPel : No
Format settings, GMC : No warppoints
Format settings, Matrix : Default (MPEG)
Codec ID : XVID
Codec ID/Hint : XviD
Duration : 1 h 42 min
Bit rate : 1 658 kb/s
Width : 720 pixels
Height : 304 pixels
Display aspect ratio : 2.35:1
Frame rate : 24.000 FPS
Color space : YUV
Chroma subsampling : 4:2:0
Bit depth : 8 bits
Scan type : Progressive
Compression mode : Lossy
Bits/(Pixel*Frame) : 0.316
Stream size : 1.18 GiB (81%)
Writing library : XviD 73
Audio
ID : 1
Format : AC-3
Format/Info : Audio Coding 3
Codec ID : 2000
Duration : 1 h 42 min
Bit rate mode : Constant
Bit rate : 384 kb/s
Channel(s) : 6 channels
Channel positions : Front: L C R, Side: L R, LFE
Sampling rate : 48.0 kHz
Frame rate : 31.250 FPS (1536 SPF)
Bit depth : 16 bits
Compression mode : Lossy
Stream size : 280 MiB (19%)
Alignment : Split accross interleaves
Interleave, duration : 42 ms (1.00 video frame)
Interleave, preload duratio : 500 ms
Service kind : Complete Main

Скриншоты



[cybertorrent.ru].t1587.torrent 
Торрент: Зарегистрирован [ 2019-03-30 15:36 ] · 5720CDE4C8682FDA8C5BF84026B9D6E313FD86AB

Скачать .torrent

Скачать

15 KB

Статус: проверено
Скачан: 0 раз
Размер: 1,46 GB
terms.php
Показать сообщения:    

Текущее время: 20-Окт 11:13

Часовой пояс: UTC ± 0



Вы не можете начинать темы
Вы не можете отвечать на сообщения
Вы не можете редактировать свои сообщения
Вы не можете удалять свои сообщения
Вы не можете голосовать в опросах
Вы не можете прикреплять файлы к сообщениям
Вы можете скачивать файлы