Статистика раздачи
Размер:  2,85 GB   |    Зарегистрирован:  3 месяца 11 дней   |    Скачан:  0 раз
Сидов:  6  [  0 KB/s  ]   Личеров:  1  [  0 KB/s  ]  
 
   
 
 

lopster ®

Пол:
Не указан
Стаж:
3 месяца 11 дней
Сообщений:
612

28 панфиловцев- Жанр: военный, драма
Год выпуска: 2016
Продолжительность: 02:00:38
Режиссер: Ким Дружинин, Андрей Шальопа
В ролях: Александр Устюгов (красноармеец Иван Москаленко), Яков Кучеревский (сержант Иван Добробабин), Азамат Нигманов (Мусабек Сенгирбаев), Олег Фёдоров (старшина Григорий Шемякин), Алексей Морозов (политрук Василий Клочков), Антон Кузнецов, Алексей Лонгин (Гундилович), Максим Белбородов, Дмитрий Мурашев, Виталий Коваленко, Сергей Агафонов, Дмитрий Цуцкин
Описание: Осенью 1941-го года немецкие части, стоявшие возле Волоколамска, отделяло от Москвы каких-нибудь два часа по шоссе. Однако, на этом шоссе стояла 316-я стрелковая дивизия под командованием генерала И. В. Панфилова. Этот военачальник обладал настолько высоким авторитетом среди личного состава, что бойцы дивизии сами называли себя панфиловцами. А дивизию - панфиловской.- -Качество: BDRip-AVC (исходник - Blu-ray|28PANFILOVTSEV_RUS_BLUEBIRD)
Формат видео: MKV
Видео: x264, 1128x472 (2.40:1) 24 fps, ~2872 kbps, 0.225 bit/pixel
Аудио: 48 kHz, AC3 Dolby Digital, 5.1 (Front: L C R, Side: L R, LFE) ch, ~448 kbps-

MediaInfo | x264 log

Format : Matroska
Format version : Version 4 / Version 2
File size : 2.85 GiB
Duration : 2h 0 min
Overall bit rate : 3 387 kb/s
Movie name : 28 панфиловцев (2016) :: AFM ::
Encoded date : UTC 2017-01-28 15:23:47
Writing application : mkvmerge v8.3.0 ('Over the Horizon') 32bit
Writing library : libebml v1.3.1 + libmatroska v1.4.2
Video
ID : 1
Format : AVC
Format/Info : Advanced Video Codec
Format profile : High@L4.1
Format settings, CABAC : Yes
Format settings, ReFrames : 10 frames
Codec ID : V_MPEG4/ISO/AVC
Duration : 2h 0 min
Bit rate : 2 872 kb/s
Width : 1 128 pixels
Height : 472 pixels
Display aspect ratio : 2.40:1
Frame rate mode : Constant
Frame rate : 24.000 FPS
Color space : YUV
Chroma subsampling : 4:2:0
Bit depth : 8 bits
Scan type : Progressive
Bits/(Pixel*Frame) : 0.225
Stream size : 2.42 GiB (85%)
Title : BDRip by AFM
Writing library : x264 core 148 r2744+55 950084e t_mod_Custom [8-bit@all X86_64]
Encoding settings : cabac=1 / ref=10 / deblock=1:-3:-2 / analyse=0x3:0x113 / me=umh / subme=10 / psy=1 / fade_compensate=0.00 / psy_rd=1.00:0.00 / mixed_ref=1 / me_range=32 / chroma_me=1 / trellis=2 / 8x8dct=1 / cqm=0 / deadzone=21,11 / fast_pskip=0 / chroma_qp_offset=-2 / threads=6 / lookahead_threads=1 / sliced_threads=0 / nr=0 / decimate=1 / interlaced=0 / bluray_compat=0 / constrained_intra=0 / fgo=0 / bframes=12 / b_pyramid=2 / b_adapt=2 / b_bias=0 / direct=1 / weightb=1 / open_gop=0 / weightp=2 / keyint=240 / keyint_min=23 / scenecut=40 / intra_refresh=0 / rc_lookahead=40 / rc=crf / mbtree=0 / crf=17.8000 / qcomp=0.65 / qpmin=0:0:0 / qpmax=69:69:69 / qpstep=4 / vbv_maxrate=50000 / vbv_bufsize=62500 / crf_max=0.0 / nal_hrd=none / filler=0 / ip_ratio=1.35 / pb_ratio=1.25 / aq=3:0.80 / aq-sensitivity=10.00 / aq-factor=1.00:1.00:1.00 / aq2=0 / aq3=0
Language : Russian
Default : Yes
Forced : No
Audio
ID : 2
Format : AC-3
Format/Info : Audio Coding 3
Mode extension : CM (complete main)
Format settings, Endianness : Big
Codec ID : A_AC3
Duration : 2h 0 min
Bit rate mode : Constant
Bit rate : 448 kb/s
Channel(s) : 6 channels
Channel positions : Front: L C R, Side: L R, LFE
Sampling rate : 48.0 kHz
Frame rate : 31.250 FPS (1536 spf)
Compression mode : Lossy
Stream size : 387 MiB (13%)
Title : AC3 5.1 ~448 kbps
Language : Russian
Default : Yes
Forced : No
Menu
00:00:00.000 : en:Глава 1
00:01:24.375 : en:Глава 2
00:11:59.208 : en:Глава 3
00:26:15.791 : en:Глава 4
00:38:43.625 : en:Глава 5
00:55:16.416 : en:Глава 6
01:12:21.333 : en:Глава 7
01:25:35.500 : en:Глава 8
01:38:52.333 : en:Глава 9

x264

x264 [info]: frame I:1113 Avg QP:16.74 size: 76679
x264 [info]: frame P:38386 Avg QP:18.78 size: 29515
x264 [info]: frame B:134224 Avg QP:20.70 size: 10723
x264 [info]: consecutive B-frames: 1.7% 2.9% 6.9% 30.5% 18.8% 25.0% 6.3% 2.2% 2.6% 1.7% 0.3% 0.3% 0.8%
x264 [info]: mb I I16..4: 5.3% 77.3% 17.4%
x264 [info]: mb P I16..4: 1.0% 15.4% 1.8% P16..4: 35.4% 25.5% 13.6% 0.0% 0.0% skip: 7.4%
x264 [info]: mb B I16..4: 0.1% 1.6% 0.2% B16..8: 37.9% 13.4% 4.2% direct: 9.0% skip:33.5% L0:42.1% L1:41.8% BI:16.1%
x264 [info]: 8x8 transform intra:83.5% inter:64.0%
x264 [info]: coded y,uvDC,uvAC intra: 87.8% 77.4% 47.5% inter: 34.0% 21.0% 2.2%
x264 [info]: i16 v,h,dc,p: 21% 18% 7% 54%
x264 [info]: i8 v,h,dc,ddl,ddr,vr,hd,vl,hu: 11% 11% 8% 9% 13% 12% 13% 11% 13%
x264 [info]: i4 v,h,dc,ddl,ddr,vr,hd,vl,hu: 12% 9% 4% 8% 15% 13% 14% 10% 13%
x264 [info]: i8c dc,h,v,p: 44% 27% 17% 13%
x264 [info]: Weighted P-Frames: Y:11.7% UV:3.9%
x264 [info]: ref P L0: 47.3% 16.6% 14.8% 5.7% 4.5% 3.2% 2.8% 1.7% 1.7% 1.5% 0.2% 0.0%
x264 [info]: ref B L0: 75.0% 11.4% 5.1% 2.5% 2.0% 1.6% 1.4% 0.7% 0.3%
x264 [info]: ref B L1: 94.5% 5.5%
x264 [info]: kb/s:2937.25

Скриншоты

с названием

[cybertorrent.ru].t159.torrent 
Торрент: Зарегистрирован [ 2018-02-15 13:57 ] · 6FA0B12EE741A944FCD66D52804DE701C8EEEE97

Скачать .torrent

Скачать

15 KB

Статус: проверено
Скачан: 0 раз
Размер: 2,85 GB
Профиль [ЛС]
Показать сообщения:    

Текущее время: 27-Май 01:36

Часовой пояс: UTC ± 0



Вы не можете начинать темы
Вы не можете отвечать на сообщения
Вы не можете редактировать свои сообщения
Вы не можете удалять свои сообщения
Вы не можете голосовать в опросах
Вы не можете прикреплять файлы к сообщениям
Вы можете скачивать файлы