BitTorrent клиенты



Губка Боб Квадратные Штаны / SpongeBob SquarePants / Сезон: 2 / Серии: 39 из 39 (Алан Смарт / Alan Smart, Уильям Рейсс / William Reiss, Пол Тиббит / Paul Tibbitt) [2000, мультфильм, фэнтези, комедия, семейный, DVDRip] Dub

Ответить на тему
 
Автор Сообщение

5at0h ®

Пол: Не указан

Стаж: 1 год

Сообщений: 414

Создавать темы 05-Фев-2018 18:33

[Цитировать]

Губка Боб Квадратные Штаны 2 сезон/ SpongeBob SquarePants- Страна: США
Жанр: мультфильм, фэнтези, комедия, семейный
Продолжительность: ~12 мин
Год выпуска: 2000
Перевод: Профессиональный (дублированный)
Русские субтитры: нет-Режиссёр: Алан Смарт / Alan Smart, Уильям Рейсс / William Reiss, Пол Тиббит / Paul Tibbitt-Рейтинг: | -Описание: Население подводного городка Бикини Боттом составляют разные морские обитатели. Среди них — лучший друг Спанч Боба, морская звезда по имени Патрик, раздражительный надменный кальмар Сквидвард и белка по имени Сэнди, которая тоже живёт под водой, используя гидрокостюм. Спанч Боб работает поваром в закусочной «Красти Краб», которая управляется старым скрягой мистером Крабсом-Ссылка на предыдущие и альтернативные раздачи: http://rutracker.org/forum/viewforum.php?f=923-Релиз: -Качество: DVDRip
Формат: AVI
Видео: 640x480 (1.33:1), 23.976 fps, XviD build 64 ~1800 kbps avg, 0.24 bit/pixel
Аудио: Rus MPEG Audio Layer 3 48000Hz stereo 128kbps
Субтитры: Отсутствуют

MediaInfo

Format/Info : Audio Video Interleave
File size : 160 MiB
Duration : 11mn 37s
Overall bit rate : 1 925 Kbps
Writing application : VirtualDubMod 1.5.10.3 | www.virtualdub-fr.org || (build 2550/release)
Writing library : VirtualDubMod build 2550/release
Video
ID : 0
Format : MPEG-4 Visual
Format profile : Advanced Simple@L5
Format settings, BVOP : 1
Format settings, QPel : No
Format settings, GMC : No warppoints
Format settings, Matrix : Custom
Codec ID : XVID
Codec ID/Hint : XviD
Duration : 11mn 37s
Bit rate : 1 788 Kbps
Width : 640 pixels
Height : 480 pixels
Display aspect ratio : 4:3
Frame rate : 23.976 fps
Color space : YUV
Chroma subsampling : 4:2:0
Bit depth : 8 bits
Scan type : Progressive
Compression mode : Lossy
Bits/(Pixel*Frame) : 0.243
Stream size : 149 MiB (93%)
Writing library : XviD 64
Audio
ID : 1
Format : MPEG Audio
Format version : Version 1
Format profile : Layer 3
Codec ID : 55
Codec ID/Hint : MP3
Duration : 11mn 37s
Bit rate mode : Constant
Bit rate : 128 Kbps
Channel(s) : 2 channels
Sampling rate : 48.0 KHz
Compression mode : Lossy
Stream size : 10.6 MiB (7%)
Alignment : Aligned on interleaves
Interleave, duration : 42 ms (1.00 video frame)
Interleave, preload duration : 504 ms

Скриншоты

Список серий

1. У тебя шнурки не завязаны (Your Shoe's Untied)
2. Выходной Сквида (Squid's Day Off)
3. Чем-то пахнет (Something Smells)
4. Малышка Босс (Bossy Boots)
5. Большой розовый неудачник (Big Pink Loser)
6. Баббл Бади (Bubble Buddy)
7. Смертельный пирог (Dying For Pie)
8. Крабс подделка (Imitation Krabs)
9. Ворми (Wormy)
10. Красивые котлетки (Patty Hype)
11. Бабулины поцелуи (Grandma's Kisses)
12. Сквидград (Squidville)
13. Последняя неделя перед зимней спячкой (Pre-Hibernation Week)
14. Преступная жизнь (Life of Crime)
15. Рождество - это кто? (Christmas Who?)
16. Выживание идиотов (Survival of the Idiots)
17. Покинутый (Dumped)
18. Незаслуженная награда (No Free Rides)
19. Я ваш поклонник (I'm Your Biggest Fanatic)
20. Морской супер-мен и очкарик 3 (Mermaid Man and Barnacle Boy III)
21. Шутки про белок (Squirrel Jokes)
22. Давление (Pressure)
23. С арахисом наголо (The Smoking Peanut)
24. Невольники призрака (You Wish)
25. Герри принимает ванну (Gary Takes A Bath)
26. Добро пожаловать в помойное ведро (Welcome to the Chum Bucket)
27. Каракуля (Frankendoodle)
28. Коробка с секретом (The Secret Box)
29. Орекстр недоумков (Band Geeks)
30. Ночная смена (The Graveyard Shift)
31. Крабсовая любовь (Krusty Love)
32. Сочинение (Procrastination)
33. Я дружу с дураком (I'm With Stupid)
34. Матросское словцо (Sailor Mouth)
35. Неизвестный художник (Artist Unknown)
36. Охотник на медуз (Jellyfish Hunters)
37. Жареные игры (The Fry Cook Games)
38. Сенди, СпанчБоб и червяк (Sandy, SpongeBob and the Worm)
39. Забастовка Сквидварда (Squid on Strike)
-

Сравнение

1 Раздача

Раздача 1

Сравнение

[url=http://www. СПАМ тебя шнурки не завязаны[/url]
[url=http://www. СПАМ Сквида[/url]
[url=http://www. СПАМ пахнет[/url]

2 Раздача

Раздача 2

Сравнение

[url=http://www. СПАМ тебя шнурки не завязаны[/url]
[url=http://www. СПАМ Сквида[/url]
[url=http://www. СПАМ пахнет[/url]
[Профиль] [ЛС]
Показать сообщения:    
Ответить на тему

Текущее время: 20-Фев 01:02

Часовой пояс: UTC + 3



Вы не можете начинать темы
Вы не можете отвечать на сообщения
Вы не можете редактировать свои сообщения
Вы не можете удалять свои сообщения
Вы не можете голосовать в опросах
Вы не можете прикреплять файлы к сообщениям
Вы можете скачивать файлы