Статистика раздачи
Размер:  5,37 GB   |    Зарегистрирован:  5 месяцев 5 дней   |    Скачан:  0 раз

Полного источника не было: Никогда

 
   
 
 

Red ®

Пол:
Не указан
Стаж:
5 месяцев 6 дней
Сообщений:
87

Губка Боб Квадратные Штаны / SpongeBob SquarePants- Страна: США
Жанр: Мультипликация, приключения
Продолжительность: 11:00 / 22:00 серия
Год выпуска: 2011-2012
Перевод: Профессиональный (дублированный)-Релиз от: -Режиссёр: Стивен Хилленбург / Stephen Hillenburg-Описание: Жизнерадостная морская Губка Боб живет в подводном райском городишке. Вы не найдете его на карте, так как кто же вам выдаст самое потрясающее место под водой! Здесь все по-другому: медуз коллекционируют как бабочек, морские водоросли, качающиеся из стороны в сторону, создают красивейшие музыкальные симфонии, а деликатесом считается крабовый бутерброд. Хотите узнать побольше о таком заманчивом местечке? Познакомьтесь поближе с Губкой Бобом Квадратные Штаны!-Сэмпл / Другие раздачи мультсериала-Качество: DVDRip
Формат: AVI
Видео: 640x480 (1.33:1), 23.976 fps, XviD build 50, ~1200 kbps avg, 0.14 bit/pixel
Аудио: 44.100 kHz, MPEG Layer 3, 2 ch, ~128.00 kbps avg-

Список серий

s8e01a - Accidents Will Happen
s8e01b - The Other Patty
s8e02a - Drive Thru
s8e02b - The Hot Shot
s8e03a - A Friendly Game
s8e03b - Sentimental Sponge
s8e04 - Frozen Face-Off
s8e05a - Squidward's School for Grown Ups
s8e05b - Oral Report
s8e06a - Sweet and Sour Squid
s8e06b - The Googly Artiste
s8e07 - A SquarePants Family Vacation
s8e08a - Patrick's Staycation
s8e08b - Walking the Plankton
s8e09a - Mooncation
s8e09b - Mr Krabs Takes a Vacation
s8e10 - Ghoul Fools
s8e11a - Mermaid Man Begins
s8e11b - Plankton's Good Eye
s8e12a - Barnacle Face
s8e12b - Pet Sitter Pat
s8e13a - House Sittin' For Sandy
s8e13b - Smoothe Jazz At Bikini Bottom
s8e14a - Bubble Troubles
s8e14b - The Way Of The Sponge
s8e15a - The Krabby Patty That Ate Bikini Bottom
s8e15b - Bubble Buddy Returns
s8e16a - Restraining SpongeBob
s8e16b - Fiasco!
s8e17a - Are You Happy Now?
s8e17b - Planet of The Jellyfish
s8e18a - Free Samples
s8e18b - Home Sweet Rubble
s8e19a - Karen 2.0
s8e19b - InSPONEGiac
s8e20a - Face Freeze!
s8e20b - Glove World R.I.P.
s8e21a - Squiditis
s8e21b - Demolition Doofus
s8e22a - Treats!
s8e22b - For Here or to Go
s8e23 - It's a SpongeBob Christmas!
s8e24a - Super Evil Aquatic Villain Team Up is Go!
s8e24b - Chum Fricassee
s8e25a - The Good Krabby Name
s8e25b - Move It or Lose It
s8e26 - Hello Bikini Bottom!

Подробные технические данные

Формат : AVI
Формат/Информация : Audio Video Interleave
Размер файла : 105 Мбайт
Продолжительность : 10 м.
Общий поток : 1341 Кбит/сек
Программа кодирования : VirtualDubMod 1.5.10.3 | www.virtualdub-fr.org || (build 2550/release)
Библиотека кодирования : VirtualDubMod build 2550/release
Видео
Идентификатор : 0
Формат : MPEG-4 Visual
Профиль формата : Advanced Simple@L5
Параметр BVOP формата : 2
Параметр QPel формата : Нет
Параметр GMC формата : Без точки перехода
Параметр матрицы формата : Default (MPEG)
Идентификатор кодека : XVID
Идентификатор кодека/Подсказка : XviD
Продолжительность : 10 м.
Битрейт : 1203 Кбит/сек
Ширина : 640 пикселей
Высота : 480 пикселей
Соотношение сторон : 4:3
Частота кадров : 23,976 кадра/сек
Цветовое пространство : YUV
Субдискретизация насыщенности : 4:2:0
Битовая глубина : 8 бит
Тип развёртки : Прогрессивная
Метод сжатия : С потерями
Бит/(Пиксели*Кадры) : 0.163
Размер потока : 94,4 Мбайт (90%)
Библиотека кодирования : XviD 1.2.1 (UTC 2008-12-04)
Аудио
Идентификатор : 1
Формат : MPEG Audio
Версия формата : Version 1
Профиль формата : Layer 3
Идентификатор кодека : 55
Идентификатор кодека/Подсказка : MP3
Продолжительность : 10 м.
Вид битрейта : Постоянный
Битрейт : 128 Кбит/сек
Каналы : 2 канала
Частота : 44,1 КГц
Метод сжатия : С потерями
Размер потока : 10,0 Мбайт (10%)
Выравнивание : Разделение по промежуткам
Продолжительность промежутка : 42 мс. (1,00 видеокадр)
Время предзагрузки промежутка : 500 мс.
Библиотека кодирования : LAME3.99r
Настройки программы : -m s -V 4 -q 2 -lowpass 17 -b 128

Внимание! Раздача ведется путем добавления новых серий

Внимание! Раздача ведётся путём добавления новых серий; при каждом добавлении создётся новый торрент. Чтобы начать докачку новой серии, пользователям необходимо сделать следующее:
(1) остановить скачивание,
(2) удалить старый торрент у себя из клиента (старые серии удалять не надо),
(3) скачать новый торрент и запустить его у себя в клиенте вместо старого, при этом указать клиенту путь в старую папку куда и должно происходить скачивание новых серий.
Ваш клиент при этом должен произвести хеширование (проверку) старой папки (если не производит сам - помогите ему сделать это), и будет докачивать только те серии которых у вас ещё нет. Старые серии при этом не удаляются, а продолжают раздаваться!
Eсли вы уже удалили старые серии, то предотвратить повторную закачку старых серий можно, отжав галочку в соответсвующих местах при запуске нового торрента. По возможности, желательно не удалять старые серии как можно дольше чтобы релизёр не столько продолжал раздавать старые серии, а смог сконцентрироваться на новых.

Скриншоты


[cybertorrent.ru].t1595.torrent 
Торрент: Зарегистрирован [ 2018-02-16 08:13 ] · 92947EB7A6ABEE23151874BC7483CC4D12544B6D

Скачать .torrent

Скачать

58 KB

Статус: проверено
Скачан: 0 раз
Размер: 5,37 GB
Профиль [ЛС]
Показать сообщения:    

Текущее время: 21-Июл 11:14

Часовой пояс: UTC ± 0



Вы не можете начинать темы
Вы не можете отвечать на сообщения
Вы не можете редактировать свои сообщения
Вы не можете удалять свои сообщения
Вы не можете голосовать в опросах
Вы не можете прикреплять файлы к сообщениям
Вы можете скачивать файлы