BitTorrent клиенты



Губка Боб Квадратные Штаны / SpongeBob SquarePants / Сезон: 8 / Серия: 4(156) (Стивен Хилленбург / Stephen Hillenburg) [2011, Мультсериал, DVB] Dub

Ответить на тему
 
Автор Сообщение

5at0h ®

Пол: Не указан

Стаж: 1 год

Сообщений: 414

Создавать темы 05-Фев-2018 18:33

[Цитировать]

Губка Боб Квадратные Штаны / SpongeBob SquarePants
Страна: США
Жанр: Мультсериал
Продолжительность: 00:23:15
Год выпуска: 2011
Перевод: Профессиональный (дублированный)
Режиссёр: Стивен Хилленбург / Stephen Hillenburg
Морозные гонки/Frozen Face-Off
Обитатели Бикини Боттом участвуют в больших гонках на санках к Южному полюсу! Приз победителю - миллион долларов.
Качество: DVB
Формат: MPG
Видео: MPEG2 Video 720x576 (4:3) 25.00fps 2821 kbps
Аудио: MPEG Audio L2 48000Hz stereo 192 kbps

MI

General
Complete name : H:\SP\S8E04.mpg
Format : MPEG-PS
File size : 511 MiB
Duration : 23mn 15s
Overall bit rate mode : Variable
Overall bit rate : 3 075 Kbps
Video
ID : 224 (0xE0)
Format : MPEG Video
Format version : Version 2
Format profile : Main@Main
Format settings, BVOP : Yes
Format settings, Matrix : Custom
Duration : 23mn 15s
Bit rate mode : Variable
Bit rate : 2 821 Kbps
Maximum bit rate : 10 000 Kbps
Width : 720 pixels
Height : 576 pixels
Display aspect ratio : 4:3
Frame rate : 25.000 fps
Standard : PAL
Color space : YUV
Chroma subsampling : 4:2:0
Bit depth : 8 bits
Scan type : Interlaced
Scan order : Top Field First
Compression mode : Lossy
Bits/(Pixel*Frame) : 0.272
Stream size : 469 MiB (92%)
Audio
ID : 192 (0xC0)
Format : MPEG Audio
Format version : Version 1
Format profile : Layer 2
Duration : 23mn 15s
Bit rate mode : Constant
Bit rate : 192 Kbps
Channel(s) : 2 channels
Sampling rate : 48.0 KHz
Compression mode : Lossy
Stream size : 31.9 MiB (6%)

Скриншоты

Все раздачи мультсериала
[Профиль] [ЛС]
Показать сообщения:    
Ответить на тему

Текущее время: 19-Фев 23:55

Часовой пояс: UTC + 3



Вы не можете начинать темы
Вы не можете отвечать на сообщения
Вы не можете редактировать свои сообщения
Вы не можете удалять свои сообщения
Вы не можете голосовать в опросах
Вы не можете прикреплять файлы к сообщениям
Вы можете скачивать файлы