Статистика раздачи
Размер:  702 MB   |    Зарегистрирован:  3 месяца 11 дней   |    Скачан:  0 раз

Полного источника не было: Никогда

 
   
 
 

lopster ®

Пол:
Не указан
Стаж:
3 месяца 11 дней
Сообщений:
612

Одиночество любви
Год выпуска: 2005
Жанр: Триллер
Продолжительность: 701 MB 2 серии
Режиссер: Виктор Мережко
В ролях: Светлана Ходченкова, Валерий Баринов, Павел Меленчук, Станислав Бондаренко, Елена Мельникова, Мария Гузеева, Дарья Сагалова, Павел Ахальцев, Екатерина Мадалинская, Владимир Костин
Описание: Однажды Федор Арнольдович Прадо, известный московский адвокат, решив заняться меценатством, стал финансировать труппу "Молодой балет". Жена Федора, Ирина, которая младше его на тридцать лет и которая за десять лет счастливой супружеской жизни не давала поводов для подозрений в неверности мужу, на просмотре спектакля этой труппы увлекается молодым и одаренным танцовщиком Евгением. Вскоре странная девица, а затем какой-то парень начинают шантажировать Ирину, требуя денег и угрожая рассказать мужу про ее измену…
Все раздачи фильма: Одиночество любви
Видео: 576x336 (1.71:1), 25 fps, DivX 5.x ~1043 kbps avg, 0.22 bit/pixel
Аудио: 48 kHz, MPEG Layer 3, 2 ch, ~128.00 kbps avg

MI

Код:Общее
Полное имя : C:\otkat\Видео\Одиночество любви\Odinochestvo_ljubvi_[torrents.ru].TVRip.torrent\Odinochestvo.ljubvi.1.of.2.avi
Формат : AVI
Формат/Информация : Audio Video Interleave
Размер файла : 350 Мбайт
Продолжительность : 47 м.
Общий поток : 1035 Кбит/сек
Программа кодирования : VirtualDubMod 1.5.10.2 (build 2540/release)
Библиотека кодирования : VirtualDubMod build 2540/release
Видео
Идентификатор : 0
Формат : MPEG-4 Visual
Профиль формата : Advanced Simple@L5
Параметр BVOP формата : 1
Параметр QPel формата : Нет
Параметр GMC формата : Без точки перехода
Параметр матрицы формата : Default (H.263)
Режим смешивания : Сжатый битовый поток
Идентификатор кодека : XVID
Идентификатор кодека/Подсказка : XviD
Продолжительность : 47 м.
Битрейт : 929 Кбит/сек
Ширина : 512 пикселей
Высота : 384 пикселя
Соотношение сторон : 4:3
Частота кадров : 25,000 кадров/сек
Цветовое пространство : YUV
Субдискретизация насыщенности : 4:2:0
Битовая глубина : 8 бит
Тип развёртки : Прогрессивная
Метод сжатия : С потерями
Бит/(Пиксели*Кадры) : 0.189
Размер потока : 314 Мбайт (90%)
Библиотека кодирования : XviD 1.2.0SMP (UTC 2006-01-08)
Аудио
Идентификатор : 1
Формат : MPEG Audio
Версия формата : Version 1
Профиль формата : Layer 3
Идентификатор кодека : 55
Идентификатор кодека/Подсказка : MP3
Продолжительность : 47 м.
Вид битрейта : Постоянный
Битрейт : 96,0 Кбит/сек
Каналы : 2 канала
Частота : 44,1 КГц
Метод сжатия : С потерями
Размер потока : 32,5 Мбайт (9%)
Выравнивание : Разделение по промежуткам
Продолжительность промежутка : 40 мс. (1,00 видеокадр)
Время предзагрузки промежутка : 500 мс.

Скриншоты


[cybertorrent.ru].t16.torrent 
Торрент: Зарегистрирован [ 2018-02-15 13:57 ] · E8F33127359A8C75539A2D27F216911AA7A421D7

Скачать .torrent

Скачать

14 KB

Статус: проверено
Скачан: 0 раз
Размер: 702 MB
Профиль [ЛС]
Показать сообщения:    

Текущее время: 27-Май 01:40

Часовой пояс: UTC ± 0



Вы не можете начинать темы
Вы не можете отвечать на сообщения
Вы не можете редактировать свои сообщения
Вы не можете удалять свои сообщения
Вы не можете голосовать в опросах
Вы не можете прикреплять файлы к сообщениям
Вы можете скачивать файлы