Статистика раздачи
Размер:  1,37 GB   |    Зарегистрирован:  3 месяца 12 дней   |    Скачан:  0 раз
Сидов:  34  [  0 KB/s  ]   Личеров:  5  [  0 KB/s  ]  
 
   
 
 

lopster ®

Пол:
Не указан
Стаж:
3 месяца 12 дней
Сообщений:
612

Китайский новый год- Жанр: Мелодрама
Год выпуска: 2017
Продолжительность: 01:27:22-Режиссёр: Артем Насыбулин-В ролях: Карина Андоленко, Артем Манукян, Евгений Пронин, Даниил Изотов, Диана Енакаева, Данила Якушев, Юлия Чиплиева, Лилия Разакова-Описание: Бойкая и деловая Светлана работает помощником мэра и привыкла всё держать под контролем. Женщина разведена, и на личную жизнь у нее совсем нет времени – она занята делами и воспитанием маленького сына Вовки.Но однажды, накануне важной конференции, налаженный ритм даёт сбой. Всё идёт наперекосяк, и шаловливый Вовка оказывается на работе Светланы во время приёма важной делегации. В этот же день героиня знакомится с Евгением – неунывающим полиглотом, дающим уроки иностранных языков. Поначалу Евгений с его необычной манерой общения раздражает Светлану. К тому же, его попытки помочь создают лишь новые проблемы.Но удивительная череда событий заставит героев новыми глазами взглянуть друг на друга..-Сэмпл: http://multi-up.com/1138066-Качество видео: HDTVRip
Формат видео: AVI
Видео: 720х400 (16:9), 25.000 fps, XviD build 73, 2036 Kbps, 0.28 Bits/Pixel
Аудио: 48 kHz, AC3 Dolby Digital, 2 ch, 192 Kbps-Релиз от: -

MediaInfo

General
Complete name : Downloads\Китайский Новый год..2016.HDTVRip.Files-x.avi
Format : AVI
Format/Info : Audio Video Interleave
File size : 1.37 GiB
Duration : 1h 27mn
Overall bit rate : 2 237 Kbps
Writing application : VirtualDubMod 1.5.10.3 | www.virtualdub-fr.org || (build 2550/release)
Writing library : VirtualDubMod build 2550/release
Video #0
ID : 0
Format : MPEG-4 Visual
Format profile : Advanced Simple@L5
Format settings, BVOP : 1
Format settings, QPel : No
Format settings, GMC : No warppoints
Format settings, Matrix : Custom
Codec ID : XVID
Codec ID/Hint : XviD
Duration : 1h 27mn
Bit rate : 2 036 Kbps
Width : 720 pixels
Height : 400 pixels
Display aspect ratio : 16:9
Frame rate : 25.000 fps
Color space : YUV
Chroma subsampling : 4:2:0
Bit depth : 8 bits
Scan type : Progressive
Compression mode : Lossy
Bits/(Pixel*Frame) : 0.283
Stream size : 1.24 GiB (91%)
Writing library : XviD 73
Audio #1
ID : 1
Format : AC-3
Format/Info : Audio Coding 3
Mode extension : CM (complete main)
Format settings, Endianness : Big
Codec ID : 2000
Duration : 1h 27mn
Bit rate mode : Constant
Bit rate : 192 Kbps
Channel(s) : 2 channels
Channel positions : Front: L R
Sampling rate : 48.0 KHz
Bit depth : 16 bits
Compression mode : Lossy
Stream size : 120 MiB (9%)
Alignment : Split accross interleaves
Interleave, duration : 40 ms (1.00 video frame)
Interleave, preload duration : 500 ms

Скриншот c названием фильма

Скриншоты

[cybertorrent.ru].t160.torrent 
Торрент: Зарегистрирован [ 2018-02-15 13:57 ] · F4C4F0E90877987BA36EADA9E3E5093A036EE4BD

Скачать .torrent

Скачать

14 KB

Статус: проверено
Скачан: 0 раз
Размер: 1,37 GB
Профиль [ЛС]
Показать сообщения:    

Текущее время: 28-Май 02:55

Часовой пояс: UTC ± 0



Вы не можете начинать темы
Вы не можете отвечать на сообщения
Вы не можете редактировать свои сообщения
Вы не можете удалять свои сообщения
Вы не можете голосовать в опросах
Вы не можете прикреплять файлы к сообщениям
Вы можете скачивать файлы