Статистика раздачи
Размер:  1,46 GB   |    Зарегистрирован:  3 месяца 11 дней   |    Скачан:  0 раз
Сидов:  10  [  0 KB/s  ]  
 
   
 
 

lopster ®

Пол:
Не указан
Стаж:
3 месяца 11 дней
Сообщений:
612

Дама Пик- Жанр: Триллер, детектив
Год выпуска: 2016
Продолжительность: 01:59:52-Режиссёр: Павел Лунгин-В ролях: Ксения Раппопорт, Иван Янковский, Мария Курденевич, Игорь Миркурбанов, Владимир Симонов, Давид Роинишвили, Дмитрий Куличков, Алексей Колган, Наталья Коляканова, Евгений Зеленский, Аркадий Парсегов, Алексей Дякин-Описание: Оперная дива Софья Майер после долгих лет эмиграции возвращается в Россию. Певица намерена поставить «Пиковую даму» Чайковского на сцене, где когда-то дебютировала. Спектакль, без сомнения, станет событием сезона, а все актеры постановки проснутся знаменитыми. О славе и деньгах мечтает молодой певец оперной труппы Андрей, и «Пиковая дама» для него шанс достичь желаемого. Он готов на всё, чтобы получить роль Германна, и об этом догадывается Софья, оставившая для себя роль Графини. Оперная дива начинает жестокую игру, в которую будут вовлечены все участники спектакля.-Сэмпл: http://multi-up.com/1138071-Качество видео: WEB-DLRip
Формат видео: AVI
Видео: 720х320 (2.25:1), 24.000 fps, XviD build 73, 1351 Kbps, 0.24 Bits/Pixel
Аудио: 48 kHz, AC3 Dolby Digital, 3/2 (L,C,R,l,r) + LFE ch, 384 Kbps / iTunes

MediaInfo

General
Complete name : Downloads\Dama.Pik.2016.WEB-DLRip
Format : AVI
Format/Info : Audio Video Interleave
File size : 1.46 GiB
Duration : 1h 59mn
Overall bit rate : 1 742 Kbps
Video #0
ID : 0
Format : MPEG-4 Visual
Format profile : Advanced Simple@L5
Format settings, BVOP : 1
Format settings, QPel : No
Format settings, GMC : No warppoints
Format settings, Matrix : Custom
Codec ID : XVID
Codec ID/Hint : XviD
Duration : 1h 59mn
Bit rate : 1 351 Kbps
Width : 720 pixels
Height : 320 pixels
Display aspect ratio : 2.25:1
Frame rate : 24.000 fps
Color space : YUV
Chroma subsampling : 4:2:0
Bit depth : 8 bits
Scan type : Progressive
Compression mode : Lossy
Bits/(Pixel*Frame) : 0.244
Stream size : 1.13 GiB (78%)
Writing library : XviD 73
Audio #1
ID : 1
Format : AC-3
Format/Info : Audio Coding 3
Mode extension : CM (complete main)
Format settings, Endianness : Big
Codec ID : 2000
Duration : 1h 59mn
Bit rate mode : Constant
Bit rate : 384 Kbps
Channel(s) : 6 channels
Channel positions : Front: L C R, Side: L R, LFE
Sampling rate : 48.0 KHz
Bit depth : 16 bits
Compression mode : Lossy
Stream size : 329 MiB (22%)
Alignment : Aligned on interleaves
Interleave, duration : 64 ms (1.54 video frames)
Interleave, preload duration : 192 ms
Title : iTunes

Скриншот c названием фильма

Скриншоты

[cybertorrent.ru].t161.torrent 
Торрент: Зарегистрирован [ 2018-02-15 13:57 ] · 96E8BBCC86E7A5B24B0C57D93CC4B1D5FB54B85B

Скачать .torrent

Скачать

15 KB

Статус: проверено
Скачан: 0 раз
Размер: 1,46 GB
Профиль [ЛС]
Показать сообщения:    

Текущее время: 26-Май 15:28

Часовой пояс: UTC ± 0



Вы не можете начинать темы
Вы не можете отвечать на сообщения
Вы не можете редактировать свои сообщения
Вы не можете удалять свои сообщения
Вы не можете голосовать в опросах
Вы не можете прикреплять файлы к сообщениям
Вы можете скачивать файлы