Статистика раздачи
Размер:  2,63 GB   |    Зарегистрирован:  8 месяцев 26 дней   |    Скачан:  0 раз

Полного источника не было: Никогда

 
   
 
 

android ®

Пол:
Не указан
Стаж:
8 месяцев 27 дней
Сообщений:
79

Черепашки мутанты ниндзя / Teenage Mutant Ninja Turtles
Страна: США
Жанр: фантастика, боевик, комедия
Продолжительность: 22
Год выпуска: 1987
Перевод: Авторский (одноголосый закадровый) Вартан Дохалов
Русские субтитры: нет
Режиссёр: Йошикатсу Касаи / Yoshikatsu Kasai, Билл Вульф / Bill Wolf
Описание: Обожаемая детьми во всем мире героическая четверка, полная неукротимой энергии, отправляется в мультприключения, расправляясь с негодяями, выслеживая злодеев и поглощая пиццу в безостановочном темпе.
Список серий:
03. A Thing About Rats
04. Hot Rodding Teenagers from Dimension X
05. Shredder & Splintered
06. Return of the Shredder
11. Case of the Killer Pizzas
12. Enter - The Fly
15. New York's Shiniest
22. Cowabunga ShredHead
Доп. информация: За исходники видео спасибо soulstorm и _Gazer_, за исходники звука DjVu-Master.
Альтернативные звуковые дорожки с исходников от micky321 http://cybertorrent.ru/viewtopic.php?t=3826345
Ссылка на предыдущие и альтернативные раздачи: http://cybertorrent.ru/tracker.php?nm=1987
Качество: DVDRip-AVC
Формат: MKV
Видео: 704x478 (4:3) @ 704x536, 23.976 fps, AVC, ~2000 Kbps, 0.248 bits/pixel
Аудио: 48.0 KHz, AC3, 1 ch, 96.0 Kbps
Субтитры: отсутствуют

Подробные технические данные

General
Unique ID : 236167784518194320013830903888622482147 (0xB1AC42C4770B6C6B8496E0206DE972E3)
Complete name : C:\TMNT\03. A Thing About Rats.mkv
Format : Matroska
Format version : Version 4 / Version 2
File size : 343 MiB
Duration : 22mn 50s
Overall bit rate : 2 098 Kbps
Encoded date : UTC 2013-07-20 10:59:28
Writing application : mkvmerge v6.3.0 ('You can't stop me!') built on Jun 27 2013 22:06:07
Writing library : libebml v1.3.0 + libmatroska v1.4.0
Video
ID : 1
Format : AVC
Format/Info : Advanced Video Codec
Format profile : High@L4.1
Format settings, CABAC : Yes
Format settings, ReFrames : 9 frames
Codec ID : V_MPEG4/ISO/AVC
Duration : 22mn 50s
Bit rate : 2 000 Kbps
Width : 704 pixels
Height : 478 pixels
Display aspect ratio : 4:3
Original display aspect ratio : 4:3
Frame rate mode : Constant
Frame rate : 23.976 fps
Color space : YUV
Chroma subsampling : 4:2:0
Bit depth : 8 bits
Scan type : Progressive
Bits/(Pixel*Frame) : 0.248
Stream size : 320 MiB (93%)
Writing library : x264 core 133 r2334 a3ac64b
Encoding settings : cabac=1 / ref=9 / deblock=1:-1:-1 / analyse=0x3:0x133 / me=umh / subme=9 / psy=1 / psy_rd=1.00:0.10 / mixed_ref=1 / me_range=32 / chroma_me=1 / trellis=2 / 8x8dct=1 / cqm=0 / deadzone=21,11 / fast_pskip=0 / chroma_qp_offset=-3 / threads=6 / lookahead_threads=1 / sliced_threads=0 / nr=0 / decimate=1 / interlaced=0 / bluray_compat=0 / constrained_intra=0 / bframes=3 / b_pyramid=2 / b_adapt=2 / b_bias=0 / direct=3 / weightb=1 / open_gop=0 / weightp=2 / keyint=250 / keyint_min=23 / scenecut=40 / intra_refresh=0 / rc_lookahead=50 / rc=2pass / mbtree=1 / bitrate=2000 / ratetol=1.0 / qcomp=0.60 / qpmin=0 / qpmax=69 / qpstep=4 / cplxblur=20.0 / qblur=0.5 / ip_ratio=1.40 / aq=1:1.00
Default : Yes
Forced : No
Audio
ID : 2
Format : AC-3
Format/Info : Audio Coding 3
Mode extension : CM (complete main)
Format settings, Endianness : Big
Codec ID : A_AC3
Duration : 22mn 50s
Bit rate mode : Constant
Bit rate : 96.0 Kbps
Channel(s) : 1 channel
Channel positions : Front: C
Sampling rate : 48.0 KHz
Bit depth : 16 bits
Compression mode : Lossy
Stream size : 15.7 MiB (5%)
Title : Вартан Дохалов
Language : Russian
Default : Yes
Forced : No

Скриншоты

[cybertorrent.ru].t1615.torrent 
Торрент: Зарегистрирован [ 2018-02-16 08:13 ] · 4C2ECAACBC9BC826303C03C1EA0A72EBBE68C248

Скачать .torrent

Скачать

14 KB

Статус: проверено
Скачан: 0 раз
Размер: 2,63 GB
Профиль [ЛС]
Показать сообщения:    

Текущее время: 14-Ноя 20:22

Часовой пояс: UTC ± 0



Вы не можете начинать темы
Вы не можете отвечать на сообщения
Вы не можете редактировать свои сообщения
Вы не можете удалять свои сообщения
Вы не можете голосовать в опросах
Вы не можете прикреплять файлы к сообщениям
Вы можете скачивать файлы
Torrents24.ru открытый BitTorrent Torrents24.pl открытый BitTorrent CyberTorrent.ru открытый BitTorrent BtList.ru рейтинг BitTorrent трекеров Яндекс.Метрика