BitTorrent клиенты



Мумии пришельцев / Aliens mummies (Стюарт Кларк / Stuart Clarke) [2012, Научно-популярный, SATRip]

Ответить на тему
Статистика раздачи
Размер:  652 MB   |    Зарегистрирован:  11 месяцев   |    Скачан:  0 раз

Полного источника не было: Никогда

 
   
 
 
Автор Сообщение

NINJA ®

Пол: Не указан

Стаж: 1 год

Сообщений: 496

Создавать темы 24-Фев-2018 02:41

[Цитировать]

Мумии пришельцев / Aliens mummies
Дата/Год выпуска: 2012
Страна: США
Жанр: Научно-популярный
Продолжительность: 00:43:56
Перевод: Профессиональный (одноголосый закадровый)
Режиссер: Стюарт Кларк / Stuart Clarke
Телеканал: Discovery
Описание: Одни ли мы во вселенной ? Наука утверждает что вряд ли. Если чужеродная жизнь существует вне нашей планеты, то и на Земле со временем должны найтись тому доказательства. Мексика, уже более пяти лет ученые не могут выяснить откуда взялось это существо, хранящее тёмную тайну ? Горы Анды в Перу, здесь был найден скелет существа, которому приписывают внеземное происхождение. На Лонг-Айленде обнаружены жуткие останки чудовища, похожего на пришельца. Загадка мумий этих пришельцев будет наконец-то раскрыта.

качество: SATRip
формат: AVI
Видео: Xvid 720x400 25fps 1738kbps
Аудио: MP3 48000Hz stereo 320kbps

MediaInfo

General
Complete name : E:\Films\Dokumentary\Discovery Aliens mummies.avi
Format : AVI
Format/Info : Audio Video Interleave
File size : 652 MiB
Duration : 43mn 56s
Overall bit rate : 2 075 Kbps
Video
ID : 0
Format : MPEG-4 Visual
Format profile : Simple@L3
Format settings, BVOP : No
Format settings, QPel : No
Format settings, GMC : No warppoints
Format settings, Matrix : Default (H.263)
Codec ID : XVID
Codec ID/Hint : XviD
Duration : 43mn 56s
Bit rate : 1 738 Kbps
Width : 720 pixels
Height : 400 pixels
Display aspect ratio : 16:9
Frame rate : 25.000 fps
Color space : YUV
Chroma subsampling : 4:2:0
Bit depth : 8 bits
Scan type : Progressive
Compression mode : Lossy
Bits/(Pixel*Frame) : 0.241
Stream size : 546 MiB (84%)
Writing library : XviD 1.2.1 (UTC 2008-12-04)
Audio
ID : 1
Format : MPEG Audio
Format version : Version 1
Format profile : Layer 3
Mode : Joint stereo
Mode extension : MS Stereo
Codec ID : 55
Codec ID/Hint : MP3
Duration : 43mn 56s
Bit rate mode : Constant
Bit rate : 320 Kbps
Channel(s) : 2 channels
Sampling rate : 48.0 KHz
Compression mode : Lossy
Stream size : 101 MiB (15%)
Alignment : Aligned on interleaves
Interleave, duration : 24 ms (0.60 video frame)
Writing library : LAME3.98.2
[cybertorrent.ru].t16152.torrent 
Торрент: Зарегистрирован [ 2018-02-24 02:45 ] · 015D08703C1EA12EA177B9682D00409469619DC6

Скачать .torrent

Скачать

13 KB

Статус: проверено
Скачан: 0 раз
Размер: 652 MB
terms.php
[Профиль] [ЛС]
Показать сообщения:    
Ответить на тему

Текущее время: 22-Фев 03:39

Часовой пояс: UTC + 3



Вы не можете начинать темы
Вы не можете отвечать на сообщения
Вы не можете редактировать свои сообщения
Вы не можете удалять свои сообщения
Вы не можете голосовать в опросах
Вы не можете прикреплять файлы к сообщениям
Вы можете скачивать файлы