Статистика раздачи
Размер:  3,65 GB   |    Зарегистрирован:  9 месяцев 1 день   |    Скачан:  0 раз

Полного источника не было: Никогда

 
   
 
 

NINJA ®

Пол:
Не указан
Стаж:
9 месяцев 2 дня
Сообщений:
84

Коллекция мультфильмов Бржетислава Пояра
Выпуск 3 - Полночное приключение
Bretislav Pojar DVD Box. DVD 3 - "Půlnoční příhoda"

Страна: Чехословакия
Жанр: Анимация
Продолжительность: 00:55:09
Год выпуска: 1957-1964
Перевод: Не требуется
Русские субтитры: нет
Режиссёр: Бржетислав Пояр / Bretislav Pojar
Художники: Иржи Трнка / Jiri Trnka, Зденек Сейдл / Zdeněk Seydl, Франтишек Браун / František Braun.
Описание: Сборник из четырех мультфильмов мастера чешской анимации Бржетислава Пояра (7 октября 1923 – 12 октября 2012).
Талантливый и самобытный представитель кукольной анимации Чехии, ближайший соратник Иржи Трнки Бржетислав Пояр - с конца 1940-х годов работал аниматором на всех знаменитых фильмах режиссера и помогал ему вплоть до своего отъезда в Канаду в 1960-м году. Имена их связаны так тесно, что иногда один и тот же фильм приписывают то великому мастеру, то его младшему соратнику. С 1952 года Пояр начал создавать свои фильмы. В его работах ярко проявляется чувство ритма, изобретательность, умение работать с деталью, мастерство одушевления персонажей.
Список мультфильмов:
1. Зонтик / Paraplíčko - 1957, (00:16:05).
2. Полночное приключение / Půlnoční příhoda - 1960, (00:13:12).
3. Идеал / Ideal - 1964, (00:14:47).
4. Бомбомания / Bombomanie, 1959, (00:10:53).
Семпл: http://yadi.sk/d/4hMyXrlO7BGWq
Качество: DVD5
Формат: DVD-Video
Видео: MPEG Video (720x480), NTSC 4:3, 29,970 кадров/сек
Аудио: AC3, 2/0ch, 384Kbps, 48,0 КГц, Чешский
Субтитры: отсутствуют
Дополнительная информация: http://www.csfd.cz/tvurce/3259-bretislav-pojar/
Производитель диска - Япония. Диск DVD оригинальный, меню нетронутое, статичное, не озвученное.

отчет MediaInfo

Общее
Полное имя : C:\Торренты\Мультфильмы\BRETISLAV_POJAR_DVD_3\VIDEO_TS\VIDEO_TS.BUP
Формат : DVD Video
Профиль формата : Menu
Размер файла : 12,0 Кбайт
Режим общего битрейта : Переменный
Видео
Идентификатор : 224 (0xE0)
Формат : MPEG Video
Версия формата : Version 2
Вид битрейта : Переменный
Ширина : 720 пикселей
Высота : 480 пикселей
Соотношение сторон : 4:3
Частота кадров : 29,970 кадров/сек
Стандарт вещания : NTSC
Метод сжатия : С потерями
Текст
Формат : RLE
Формат/Информация : Run-length encoding
Битовая глубина : 2 бит
Общее
Полное имя : C:\Торренты\Мультфильмы\BRETISLAV_POJAR_DVD_3\VIDEO_TS\VIDEO_TS.IFO
Формат : DVD Video
Профиль формата : Menu
Размер файла : 12,0 Кбайт
Режим общего битрейта : Переменный
Видео
Идентификатор : 224 (0xE0)
Формат : MPEG Video
Версия формата : Version 2
Вид битрейта : Переменный
Ширина : 720 пикселей
Высота : 480 пикселей
Соотношение сторон : 4:3
Частота кадров : 29,970 кадров/сек
Стандарт вещания : NTSC
Метод сжатия : С потерями
Текст
Формат : RLE
Формат/Информация : Run-length encoding
Битовая глубина : 2 бит
Общее
Полное имя : C:\Торренты\Мультфильмы\BRETISLAV_POJAR_DVD_3\VIDEO_TS\VIDEO_TS.VOB
Формат : MPEG-PS
Размер файла : 5,36 Мбайт
Продолжительность : 7 с. 7 мс.
Режим общего битрейта : Переменный
Общий поток : 6416 Кбит/сек
Видео
Идентификатор : 224 (0xE0)
Формат : MPEG Video
Версия формата : Version 2
Профиль формата : Simple@Main
Параметр BVOP формата : Нет
Параметр матрицы формата : Выборочная
Параметр GOP формата : Variable
Продолжительность : 7 с. 7 мс.
Вид битрейта : Переменный
Битрейт : 6288 Кбит/сек
Максимальный битрейт : 8000 Кбит/сек
Ширина : 720 пикселей
Высота : 480 пикселей
Соотношение сторон : 4:3
Частота кадров : 29,970 кадров/сек
Стандарт вещания : NTSC
Цветовое пространство : YUV
Субдискретизация насыщенности : 4:2:0
Битовая глубина : 8 бит
Тип развёртки : Чересстрочная
Порядок развёртки : Верхнее поле первое
Метод сжатия : С потерями
Бит/(Пиксели*Кадры) : 0.607
Временной код первого кадра : 00:59:01:00
Оригинал временного кода : Group of pictures header
Размер потока : 5,25 Мбайт (98%)
Меню
Общее
Полное имя : C:\Торренты\Мультфильмы\BRETISLAV_POJAR_DVD_3\VIDEO_TS\VTS_01_0.BUP
Формат : DVD Video
Профиль формата : Program
Размер файла : 60,0 Кбайт
Продолжительность : 55 м.
Режим общего битрейта : Переменный
Общий поток : 149 бит/сек
Видео
Идентификатор : 224 (0xE0)
Формат : MPEG Video
Версия формата : Version 2
Продолжительность : 55 м.
Вид битрейта : Переменный
Ширина : 720 пикселей
Высота : 480 пикселей
Соотношение сторон : 4:3
Частота кадров : 29,970 кадров/сек
Стандарт вещания : NTSC
Метод сжатия : С потерями
Аудио
Идентификатор : 128 (0x80)
Формат : AC-3
Формат/Информация : Audio Coding 3
Продолжительность : 55 м.
Каналы : 2 канала
Частота : 48,0 КГц
Метод сжатия : С потерями
Язык : Czech
Меню #1
Продолжительность : 55 м.
00:00:00.000 : Chapter 1
00:16:05.066 : Chapter 2
00:29:17.199 : Chapter 3
00:44:05.065 : Chapter 4
List (Audio) : 0
Меню #2
Продолжительность : 16 м.
00:00:00.000 : Chapter 1
List (Audio) : 0
Общее
Полное имя : C:\Торренты\Мультфильмы\BRETISLAV_POJAR_DVD_3\VIDEO_TS\VTS_01_0.IFO
Формат : DVD Video
Профиль формата : Program
Размер файла : 60,0 Кбайт
Продолжительность : 55 м.
Режим общего битрейта : Переменный
Общий поток : 149 бит/сек
Видео
Идентификатор : 224 (0xE0)
Формат : MPEG Video
Версия формата : Version 2
Продолжительность : 55 м.
Вид битрейта : Переменный
Ширина : 720 пикселей
Высота : 480 пикселей
Соотношение сторон : 4:3
Частота кадров : 29,970 кадров/сек
Стандарт вещания : NTSC
Метод сжатия : С потерями
Аудио
Идентификатор : 128 (0x80)
Формат : AC-3
Формат/Информация : Audio Coding 3
Продолжительность : 55 м.
Каналы : 2 канала
Частота : 48,0 КГц
Метод сжатия : С потерями
Язык : Czech
Меню #1
Продолжительность : 55 м.
00:00:00.000 : Chapter 1
00:16:05.066 : Chapter 2
00:29:17.199 : Chapter 3
00:44:05.065 : Chapter 4
List (Audio) : 0
Меню #2
Продолжительность : 16 м.
00:00:00.000 : Chapter 1
List (Audio) : 0
Общее
Полное имя : C:\Торренты\Мультфильмы\BRETISLAV_POJAR_DVD_3\VIDEO_TS\VTS_01_0.VOB
Формат : MPEG-PS
Размер файла : 96,0 Кбайт
Продолжительность : 33 мс.
Общий поток : 23,8 Мбит/сек
Видео
Идентификатор : 224 (0xE0)
Формат : MPEG Video
Версия формата : Version 2
Профиль формата : Main@Main
Параметр BVOP формата : Нет
Параметр матрицы формата : Выборочная
Продолжительность : 33 мс.
Максимальный битрейт : 8000 Кбит/сек
Ширина : 720 пикселей
Высота : 480 пикселей
Соотношение сторон : 4:3
Частота кадров : 29,970 кадров/сек
Стандарт вещания : NTSC
Цветовое пространство : YUV
Субдискретизация насыщенности : 4:2:0
Битовая глубина : 8 бит
Тип развёртки : Прогрессивная
Порядок развёртки : Верхнее поле первое
Метод сжатия : С потерями
Временной код первого кадра : 00:00:00:00
Оригинал временного кода : Group of pictures header
Текст
Идентификатор : 189 (0xBD)-32 (0x20)
Формат : RLE
Формат/Информация : Run-length encoding
Режим смешивания : DVD-Video
Меню
Общее
Полное имя : C:\Торренты\Мультфильмы\BRETISLAV_POJAR_DVD_3\VIDEO_TS\VTS_01_1.VOB
Формат : MPEG-PS
Размер файла : 1023 Мбайт
Продолжительность : 14 м.
Режим общего битрейта : Переменный
Общий поток : 9556 Кбит/сек
Видео
Идентификатор : 224 (0xE0)
Формат : MPEG Video
Версия формата : Version 2
Профиль формата : Main@Main
Параметр BVOP формата : Да
Параметр матрицы формата : Выборочная
Параметр GOP формата : M=3, N=15
Продолжительность : 14 м.
Вид битрейта : Переменный
Битрейт : 8982 Кбит/сек
Максимальный битрейт : 8000 Кбит/сек
Ширина : 720 пикселей
Высота : 480 пикселей
Соотношение сторон : 4:3
Частота кадров : 29,970 кадров/сек
Стандарт вещания : NTSC
Цветовое пространство : YUV
Субдискретизация насыщенности : 4:2:0
Битовая глубина : 8 бит
Тип развёртки : Чересстрочная
Порядок развёртки : Верхнее поле первое
Метод сжатия : С потерями
Бит/(Пиксели*Кадры) : 0.867
Временной код первого кадра : 01:00:56:00
Оригинал временного кода : Group of pictures header
Размер потока : 962 Мбайт (94%)
Аудио
Идентификатор : 189 (0xBD)-128 (0x80)
Формат : AC-3
Формат/Информация : Audio Coding 3
Расширение режима : CM (complete main)
Параметр Endianness формата : Big
Режим смешивания : DVD-Video
Продолжительность : 14 м.
Вид битрейта : Постоянный
Битрейт : 384 Кбит/сек
Каналы : 2 канала
Расположение каналов : Front: L R
Частота : 48,0 КГц
Битовая глубина : 16 бит
Метод сжатия : С потерями
Задержка видео : -66 мс.
Размер потока : 41,1 Мбайт (4%)

Отчет DVDInfo

Title: Acer
Size: 3.65 Gb ( 3 830 126 KBytes ) - DVD-5
Enabled regions: 1, 2, 3, 4, 5, 6, 7, 8
VTS_01 :
Play Length: 00:55:09+00:16:05+00:13:12+00:14:47+00:10:53
Video: NTSC 4:3 (720x480) VBR
Audio:
Czech(Ceske) (Dolby AC3, 2 ch)
Menu Video:
NTSC 4:3 (720x480) VBR
Menu Subtitles:
Not specified
Menu Japanese Language Unit :
Root Menu

Скриншоты меню

Скриншоты

Обложка DVD

[cybertorrent.ru].t1618.torrent 
Торрент: Зарегистрирован [ 2018-02-16 08:13 ] · 3E556C1F1B753CBB0D65590EBAFF61D07E5CCC41

Скачать .torrent

Скачать

19 KB

Статус: проверено
Скачан: 0 раз
Размер: 3,65 GB
Профиль [ЛС]
Показать сообщения:    

Текущее время: 17-Ноя 13:11

Часовой пояс: UTC ± 0



Вы не можете начинать темы
Вы не можете отвечать на сообщения
Вы не можете редактировать свои сообщения
Вы не можете удалять свои сообщения
Вы не можете голосовать в опросах
Вы не можете прикреплять файлы к сообщениям
Вы можете скачивать файлы
Torrents24.ru открытый BitTorrent Torrents24.pl открытый BitTorrent CyberTorrent.ru открытый BitTorrent BtList.ru рейтинг BitTorrent трекеров Яндекс.Метрика