Статистика раздачи
Размер:  978 MB   |    Зарегистрирован:  3 месяца 8 дней   |    Скачан:  0 раз

Полного источника не было: Никогда

 
   
 
 

lopster ®

Пол:
Не указан
Стаж:
3 месяца 8 дней
Сообщений:
612

Иннокентий Сибиряков. Помогите мне... Я страшно богат!
Художественные биографические фильмы о предпринимателях, финансистах и меценатах
Жанр: драма
Год выпуска: 2016
Продолжительность: 00:59:58
Режиссёр: Александр Карпов
В ролях: Сергей Зотов, Анна Джулия Скруфари, Владимир Лаптев (I), Владимир Ипатов, Андрей Бажин, Артур Иванов, Андрей Панов, Артемий Падалка, Олег Руденко-Травин, Денис Дружинин, Андрей Касницкий, Ольга Галуцкая, Виктор Семиместнов, Анастасия Платонова, Аглая Коваленко, Игорь Беляев (II), Никита Логинов, Владимир Андрианов (II), Евгений Тарло, Татьяна Насташевская, Борис Бельчуевский
Описание: Фильм посвящен памяти нашего замечательного соотечественника, Иннокентия Михайловича Сибирякова (1860-1901), благотворителя, мецената, в будущем насельника Святой горы Афон. Воспитанный родителями в традициях православного благочестия и милосердия, по Божией милости он обладал исключительной даже для русских людей широтою души, помогая неимущим, финансируя научно-образовательные центры в Сибири и столице, но особенно щедро жертвуя на православные храмы и монастыри. Начав жизнь успешным потомственным купцом-миллионщиком, И.М.Сибиряков завершил свой земной путь смиренным схимонахом на Святой горе Афон в построенном на его тайные пожертвования Свято-Андреевском скиту.
Сэмпл: http://multi-up.com/1138500
Качество видео: WEB-DLRip
Формат видео: MKV
Видео: AVC, 1024x576 (16:9), 25.000 fps, 2 150 Kbps (0.146 bit/pixel)
Аудио: AC-3, 44.1 KHz, 2 ch (Russian)

MediaInfo

General
Unique ID : 178333037853819861602996406390736171161 (0x8629B19AC13CFC24BCE25673080A3099)
Complete name : G:\Иннокентий Сибиряков. Помогите мне... Я страшно богат!.mkv
Format : Matroska
Format version : Version 2
File size : 978 MiB
Duration : 59mn 58s
Overall bit rate : 2 281 Kbps
Encoded date : UTC 2016-12-25 19:35:33
Writing application : mkvmerge v7.8.0 ('River Man') 32bit built on Apr 3 2015 12:11:22
Writing library : libebml v1.3.1 + libmatroska v1.4.2
Video
ID : 1
Format : AVC
Format/Info : Advanced Video Codec
Format profile : High@L4.1
Format settings, CABAC : Yes
Format settings, ReFrames : 12 frames
Codec ID : V_MPEG4/ISO/AVC
Duration : 59mn 58s
Bit rate : 2 150 Kbps
Width : 1 024 pixels
Height : 576 pixels
Display aspect ratio : 16:9
Frame rate mode : Constant
Frame rate : 25.000 fps
Color space : YUV
Chroma subsampling : 4:2:0
Bit depth : 8 bits
Scan type : Progressive
Bits/(Pixel*Frame) : 0.146
Stream size : 904 MiB (92%)
Writing library : x264 core 146 r2538 121396c
Encoding settings : cabac=1 / ref=12 / deblock=1:-2:-2 / analyse=0x3:0x113 / me=umh / subme=10 / psy=1 / psy_rd=1.05:0.10 / mixed_ref=1 / me_range=32 / chroma_me=1 / trellis=2 / 8x8dct=1 / cqm=0 / deadzone=21,11 / fast_pskip=0 / chroma_qp_offset=-3 / threads=3 / lookahead_threads=1 / sliced_threads=0 / nr=0 / decimate=0 / interlaced=0 / bluray_compat=0 / constrained_intra=0 / bframes=16 / b_pyramid=2 / b_adapt=2 / b_bias=0 / direct=3 / weightb=1 / open_gop=0 / weightp=2 / keyint=250 / keyint_min=25 / scenecut=40 / intra_refresh=0 / rc=2pass / mbtree=0 / bitrate=2150 / ratetol=1.0 / qcomp=0.63 / qpmin=0 / qpmax=69 / qpstep=4 / cplxblur=20.0 / qblur=0.5 / ip_ratio=1.25 / pb_ratio=1.30 / aq=1:1.00
Language : Russian
Default : Yes
Forced : No
Color primaries : BT.709
Transfer characteristics : BT.709
Matrix coefficients : BT.709
Audio
ID : 2
Format : AC-3
Format/Info : Audio Coding 3
Mode extension : CM (complete main)
Format settings, Endianness : Big
Codec ID : A_AC3
Duration : 59mn 58s
Bit rate mode : Constant
Bit rate : 128 Kbps
Channel(s) : 2 channels
Channel positions : Front: L R
Sampling rate : 44.1 KHz
Bit depth : 16 bits
Compression mode : Lossy
Stream size : 54.9 MiB (6%)
Language : Russian
Default : Yes
Forced : No

Скриншот c названием фильма

Скриншоты

[cybertorrent.ru].t162.torrent 
Торрент: Зарегистрирован [ 2018-02-15 13:57 ] · 5D8884ECE83E399FBCE64128D08E370DBA1826B9

Скачать .torrent

Скачать

20 KB

Статус: проверено
Скачан: 0 раз
Размер: 978 MB
Профиль [ЛС]
Показать сообщения:    

Текущее время: 23-Май 16:29

Часовой пояс: UTC ± 0



Вы не можете начинать темы
Вы не можете отвечать на сообщения
Вы не можете редактировать свои сообщения
Вы не можете удалять свои сообщения
Вы не можете голосовать в опросах
Вы не можете прикреплять файлы к сообщениям
Вы можете скачивать файлы