Статистика раздачи
Размер:  5,53 GB   |    Зарегистрирован:  7 месяцев 6 дней   |    Скачан:  0 раз

Полного источника не было: Никогда

 
   
 
 

android ®

Пол:
Не указан
Стаж:
7 месяцев 7 дней
Сообщений:
79

-Оригинальное название: Teenage Mutant Ninja Turtles
Русское название: Черепашки Ниндзя
Год выпуска: 2012
Страна: США
Жанр: Приключения, комедия, фантастика
Продолжительность: ~23 минуты (серия)

Перевод: Профессиональный (полное дублирование) SDI Media по заказу Nickelodeon
Роли озвучивали: Андрей Бархударов, Сергей Смирнов, Даниил Щебланов, Александр Поляков, Денис Некрасов, Радик Мухамедзянов, Михаил Крылов, Александр Воронов и Жанна Никонова
-Производство: Nickelodeon
Режиссёр: Майкл Чанг / Michael Chang
-Роли озвучивали: Джейсон Биггз, Роб Полсен, Шон Астин, Грейг Кипс, Хун Ли, Мэй Уитман, Кевин Майкл Ричардсон, Нолан Норт, Фил ЛаМарр, Келли Ху, Кит Сильверстайн и др.-Описание: Лео, Раф, Майки (Мики) и Донни – черепашки-мутанты, научившиеся боевому искусству ниндзюцу у своего сэнсэя Учителя Сплинтера. Выбравшись из канализации на улицы Нью-Йорка, братья оказываются в бурлящем жизнью мегаполисе. Здесь им придется неустанно противостоять самым кровожадным злодеям в истории человечества. В свободное от схваток время ребята занимаются своим любимым делом – дурачатся и едят восхитительную сочную пиццу!
Сражаясь с мастером Шредером, мерзким инопланетянином Крэнгом и толпами сверхмощных мутантов, черепашки учатся стоять друг за друга стеной, чтобы стать теми, кем им предписано быть судьбой – отважными и благородными героями!-РЕЛИЗ ОТ: V.SERIJ2013-Спасибо DARKAN за запись звука и goldicarlyfan за синхронизацию дорожки.-Качество: WEB-DLRip
Формат: AVI
Видео кодек: DivX
Аудио кодек: AC3
Видео: DivX 5 624x352 23.98fps ~880Kbps
Аудио:
  • русская [Nickelodeon]: Dolby AC3 48000Hz stereo 192kbps,
  • английская: Dolby AC3 48000Hz stereo 192kbps
Скриншоты:
-

Список серий

1 сезон (2012 год):
01. Черепашки выходят на поверхность, Часть 1 / Rise of the Turtles, Part 1
02. Черепашки выходят на поверхность, Часть 2 / Rise of the Turtles, Part 2
03. Черепаший нрав / Turtle Temper
04. Новый друг, старый враг / New Friend, Old Enemy
05. Кажется его зовут Бакстер Стокман / I Think His Name is Baxter Stockman
06. Металлическая голова / Metalhead
07. Обезьяньи мозги / Monkey Brains
08. Никогда не говори Ксевер / Never Say Xever
09. Перчатка / The Gauntlet
10. Паника в канализации / Panic in the Sewers
11. Атака маузеров / Mousers Attack!
12. Он пришёл из глубин / It Came From the Depths
13. Я-монстр / I, Monster
14. Новая девчонка в городе / New Girl In Town
15. Инопланетный план / The Alien Agenda
16. Пулеверизатор / The Pulverizer
17. ИТКИ / TCRI
18. Таракан-терминатор / Cockroach Terminator
19. Гамбит Бакстера / Baxter's Gambit
20. Враг моего врага / Enemy Of My Enemy
21. Месть Караи / Karai's Vendetta
22. Возвращение Пулеверизатора / The Pulverizer Returns!
23. Паразиты / Parasitica
24. Операция: Освобождение / Operation: Break Out
25. Решающее сражение, Часть 1 / Showdown, Part 1
26. Решающее сражение, Часть 2 / Showdown, Part 2

Media Info

Код:General
Complete name : E:\Videos\Sample Videos\Teenage Mutant Ninja Turtles Season 1\01. Rise of the Turtles, Part 1.avi
Format : AVI
Format/Info : Audio Video Interleave
File size : 216 MiB
Duration : 23mn 37s
Overall bit rate : 1 276 Kbps
Writing application : VirtualDubMod 1.5.10.2 (build 2540/release)
Writing library : VirtualDubMod build 2540/release
Video
ID : 0
Format : MPEG-4 Visual
Format profile : Advanced Simple@L5
Format settings, BVOP : Yes
Format settings, QPel : No
Format settings, GMC : No warppoints
Format settings, Matrix : Default (H.263)
Codec ID : DX50
Codec ID/Hint : DivX 5
Duration : 23mn 37s
Bit rate : 878 Kbps
Width : 624 pixels
Height : 352 pixels
Display aspect ratio : 16:9
Frame rate : 23.976 fps
Color space : YUV
Chroma subsampling : 4:2:0
Bit depth : 8 bits
Scan type : Progressive
Compression mode : Lossy
Bits/(Pixel*Frame) : 0.167
Stream size : 148 MiB (69%)
Writing library : XviD 73
Audio #1
ID : 1
Format : AC-3
Format/Info : Audio Coding 3
Mode extension : CM (complete main)
Codec ID : 2000
Duration : 23mn 37s
Bit rate mode : Constant
Bit rate : 192 Kbps
Channel(s) : 2 channels
Channel positions : Front: L R
Sampling rate : 48.0 KHz
Bit depth : 16 bits
Compression mode : Lossy
Stream size : 32.4 MiB (15%)
Alignment : Split accross interleaves
Interleave, duration : 42 ms (1.00 video frame)
Interleave, preload duration : 500 ms
Audio #2
ID : 2
Format : AC-3
Format/Info : Audio Coding 3
Mode extension : CM (complete main)
Codec ID : 2000
Duration : 23mn 37s
Bit rate mode : Constant
Bit rate : 192 Kbps
Channel(s) : 2 channels
Channel positions : Front: L R
Sampling rate : 48.0 KHz
Bit depth : 16 bits
Compression mode : Lossy
Stream size : 32.4 MiB (15%)
Alignment : Aligned on interleaves
Interleave, duration : 42 ms (1.00 video frame)
Interleave, preload duration : 512 ms
-Все раздачи мультсериала
[cybertorrent.ru].t1620.torrent 
Торрент: Зарегистрирован [ 2018-02-16 08:13 ] · F00D773E566DD3D59F264A94EDBBFEA484AFAA07

Скачать .torrent

Скачать

16 KB

Статус: проверено
Скачан: 0 раз
Размер: 5,53 GB
Профиль [ЛС]
Показать сообщения:    

Текущее время: 22-Сен 18:43

Часовой пояс: UTC ± 0



Вы не можете начинать темы
Вы не можете отвечать на сообщения
Вы не можете редактировать свои сообщения
Вы не можете удалять свои сообщения
Вы не можете голосовать в опросах
Вы не можете прикреплять файлы к сообщениям
Вы можете скачивать файлы
Torrents24.ru открытый BitTorrent Torrents24.pl открытый BitTorrent CyberTorrent.ru открытый BitTorrent BtList.ru рейтинг BitTorrent трекеров Яндекс.Метрика