Статистика раздачи
Размер:  1,16 GB   |    Зарегистрирован:  6 месяцев 22 дня   |    Скачан:  0 раз
Сидов:  40  [  0 KB/s  ]   Личеров:  2  [  0 KB/s  ]  
   
 

Гость ®

Пол:
Не указан

Тёмная сторона света
Год выпуска: 2019
Производство: Кинокомпания Зебра
Жанр: детектив, мелодрама
Продолжительность: ~00:45:00 серия
Субтитры: нет
Режиссёр: Григорий Жихаревич
В ролях: Анна Банщикова, Владислав Резник, Юрий Елагин, Леонид Алимов, Константин Воробьёв, Александр Шаханов, Анатолий Друзенко, Мария Семёнова, Светлана Гайтан, Филипп Азаров, Ольга Иванова, Ольга Гордийчук, Александр Павельев, Игорь Рекец
Описание: Капитан юстиции Любовь Сторожева сталкивается со сложной загадкой. Убита женщина, почерк указывает на причастность маньяка, хорошо знакомого органам. Вот только тот уже давно сидит за решёткой. Был ли осуждён невиновный? Или новый преступник маскирует следы, стараясь пустить следствие по ложному пути? Пока Люба разбирается с тайнами погибшей, рушится её собственная семейная жизнь. Отдавая себя работе и детям, следователь не замечает, что её муж заводит интрижку на стороне. Зато это видит давний ухажёр Любы, майор Пошивалов, гроза женских сердец и преступного мира.

Реклама: Нет.
Кино-театр
Все раздачи сериала
Sample
Качество: WEBRip - Files-x
Формат: AVI
Видео кодек: XviD
Аудио кодек: AC3
Видео: 720x400 (1.80:1), 25 fps, XviD build 73 ~1600 kbps avg, 0.222 bit/pixel
Аудио: 48.0 kHz, AC3 Dolby Digital, 2/0 (L,R) ch, ~ 192 kbps

MI

General
Complete name : D:\Темная сторона света.2019.Files-x\01.Темная сторона света.2019.Files-x.avi
Format : AVI
Format/Info : Audio Video Interleave
File size : 581 MiB
Duration : 45 min 3 s
Overall bit rate : 1 802 kb/s
Writing application : VirtualDubMod 1.5.10.3 | www.virtualdub-fr.org || (build 2550/release)
Writing library : VirtualDubMod build 2550/release
Video
ID : 0
Format : MPEG-4 Visual
Format profile : Advanced Simple@L5
Format settings : BVOP1 / Custom Matrix
Format settings, BVOP : 1
Format settings, QPel : No
Format settings, GMC : No warppoints
Format settings, Matrix : Custom
Codec ID : XVID
Codec ID/Hint : XviD
Duration : 45 min 3 s
Bit rate : 1 600 kb/s
Width : 720 pixels
Height : 400 pixels
Display aspect ratio : 16:9
Frame rate : 25.000 FPS
Color space : YUV
Chroma subsampling : 4:2:0
Bit depth : 8 bits
Scan type : Progressive
Compression mode : Lossy
Bits/(Pixel*Frame) : 0.222
Stream size : 516 MiB (89%)
Writing library : XviD 73
Audio
ID : 1
Format : AC-3
Format/Info : Audio Coding 3
Codec ID : 2000
Duration : 45 min 3 s
Bit rate mode : Constant
Bit rate : 192 kb/s
Channel(s) : 2 channels
Channel positions : Front: L R
Sampling rate : 48.0 kHz
Frame rate : 31.250 FPS (1536 SPF)
Bit depth : 16 bits
Compression mode : Lossy
Stream size : 61.9 MiB (11%)
Alignment : Split accross interleaves
Interleave, duration : 40 ms (1.00 video frame)
Interleave, preload duratio : 500 ms
Service kind : Complete Main

Скриншоты


[cybertorrent.ru].t1624.torrent 
Торрент: Зарегистрирован [ 2019-03-30 15:36 ] · 07C1919CA241978A94DB4CE5B087ADEE213FC39B

Скачать .torrent

Скачать

12 KB

Статус: проверено
Скачан: 0 раз
Размер: 1,16 GB
terms.php
Показать сообщения:    

Текущее время: 22-Окт 08:15

Часовой пояс: UTC ± 0



Вы не можете начинать темы
Вы не можете отвечать на сообщения
Вы не можете редактировать свои сообщения
Вы не можете удалять свои сообщения
Вы не можете голосовать в опросах
Вы не можете прикреплять файлы к сообщениям
Вы можете скачивать файлы