Статистика раздачи
Размер:  9,07 GB   |    Зарегистрирован:  9 месяцев 5 дней   |    Скачан:  0 раз

Полного источника не было: Никогда

 
   
 
 

martin ®

Пол:
Не указан
Стаж:
9 месяцев 6 дней
Сообщений:
47

Аватар: Легенда о Корре / The Last Airbender: The Legend of Korra- Страна: США
Год выпуска: 2012
Жанр: мультфильм, фэнтези, боевик, приключения
Продолжительность: 00:24:00
Перевод: Профессиональный (полное дублирование) SDI Media
Перевод 2: Профессиональный (многоголосый закадровый) 2x2
Перевод 3: Любительский (двухголосый закадровый) SkyeFilmTV
Русские субтитры: есть [Korra-Avatar]
Перевод субтитров: vmakoed, ХищNICK. Редакция: vmakoed. Тайминг: vmakoed- -Режиссёр: Майкл Данте Димартино, Брайан Кониецко / Michael Dante DiMartino, Bryan Konietzko
Роли дублировали: Ольга Шорохова, Александр Гаврилин, Валерий Сторожик, Владимир Антоник, Мария Овчинникова, Никита Прозоровский, Ольга Сирина
Описание: Действие сериала разворачивается примерно через 70 лет после победы аватара Аанга над Лордом Огня в последней серии мультсериала «Аватар: Легенда об Аанге». Корра, уже овладевшая магией воды, земли и огня должна обучиться последнему элементу — магии воздуха. В этом ей может помочь только сын Аанга и Катары — Тензин. Корра живёт в «Республиканском городе». Республиканский город — это место, где вместе живут люди всех наций. Героям мультсериала предстоит борьба с преступностью и с готовящимся восстанием против магов.
Благодарности: Большое спасибо Kalchenko84-у за дублированную аудио дорожку. #Antisnl# -у за аудио 2x2, JonEA-у за предоставление чистых голосов, jemka95-у за предоставление обновленных русских субтитров.- -Качество: BDRip 720p Рип: Green
Формат: MKV
Видео: AVC, 1280x720, 23,976 fps, 2 885 Kbps
Аудио: AC3, 48 kHz, 2 channels, 192 kbps - DUB [SDI Media]
Аудио 2: AC3, 48 kHz, 2 channels, 192 kbps - MVO [2x2]
Аудио: AC3, 48 KHz, 6 channels, 640 Kbps - DVO [SkyeFilmTV]
Аудио 4: AC3, 48 KHz, 6 channels, 640 Kbps - ENG [Оригинал]
Аудио 5: OGG, 48 KHz, 2 channels, 64 Kbps - ENG [Комментарии]
Субтитры: русские [Korra-Avatar] , английские -Все раздачи мультсериала-

Список серий:

1. Welcome to Republic City / Добро пожаловать в город Республика
2. A Leaf in the Wind / Лист на ветру
3. The Revelation / Откровения
4. The Voice in the Night / Голос в ночи
5. The Spirit of Competition / Дух соревнования
6. And the Winner Is... / Победителем становится...
7. The Aftermath / Последствия
8. When Extremes Meet / Когда встречаются крайности
9. Out of the Past / Послание из прошлого
10. Turning the Tides / Перелом
11. Skeletons in the Closet / Скелеты в шкафу
12. Endgame / Конец игры

Подробные технические данные

General
Unique ID : 174553410851316846736741908489944627908 (0x8351C39B18EC93C5948D60ACA73EFAC4)
Complete name : H:\Раздачи\Avatar.The.Legend.of.Korra.Season.1.2012.BDRip.720p.DUB.MVO.DVO.ENG.Subs\The.Legend.of.Korra.S01E11.BDRip.720p.DUB.MVO.DVO.ENG.Subs-Green.mkv
Format : Matroska
Format version : Version 2
File size : 814 MiB
Duration : 24mn 11s
Overall bit rate mode : Variable
Overall bit rate : 4 707 Kbps
Encoded date : UTC 2013-08-13 19:46:05
Writing application : mkvmerge v5.8.0 ('No Sleep / Pillow') built on Sep 2 2012 15:37:04
Writing library : libebml v1.2.3 + libmatroska v1.3.0
Video
ID : 1
Format : AVC
Format/Info : Advanced Video Codec
Format profile : High@L4.1
Format settings, CABAC : Yes
Format settings, ReFrames : 9 frames
Codec ID : V_MPEG4/ISO/AVC
Duration : 24mn 11s
Bit rate : 2 885 Kbps
Width : 1 280 pixels
Height : 720 pixels
Display aspect ratio : 16:9
Frame rate : 23.976 fps
Color space : YUV
Chroma subsampling : 4:2:0
Bit depth : 8 bits
Scan type : Progressive
Bits/(Pixel*Frame) : 0.131
Stream size : 499 MiB (61%)
Writing library : x264 core 135 r2345 f0c1c53
Encoding settings : cabac=1 / ref=9 / deblock=1:-3:-3 / analyse=0x3:0x113 / me=umh / subme=11 / psy=1 / psy_rd=0.80:0.00 / mixed_ref=1 / me_range=32 / chroma_me=1 / trellis=2 / 8x8dct=1 / cqm=0 / deadzone=21,11 / fast_pskip=0 / chroma_qp_offset=-2 / threads=18 / lookahead_threads=3 / sliced_threads=0 / nr=0 / decimate=0 / interlaced=0 / bluray_compat=0 / constrained_intra=0 / bframes=9 / b_pyramid=2 / b_adapt=2 / b_bias=0 / direct=3 / weightb=1 / open_gop=0 / weightp=2 / keyint=240 / keyint_min=23 / scenecut=40 / intra_refresh=0 / rc_lookahead=60 / rc=crf / mbtree=0 / crf=15.0 / qcomp=0.60 / qpmin=0 / qpmax=69 / qpstep=4 / vbv_maxrate=62500 / vbv_bufsize=78125 / crf_max=0.0 / nal_hrd=none / ip_ratio=1.40 / pb_ratio=1.30 / aq=2:0.80
Language : English
Default : Yes
Forced : No
Audio #1
ID : 2
Format : AC-3
Format/Info : Audio Coding 3
Mode extension : CM (complete main)
Format settings, Endianness : Big
Codec ID : A_AC3
Duration : 24mn 11s
Bit rate mode : Constant
Bit rate : 192 Kbps
Channel(s) : 2 channels
Channel positions : Front: L R
Sampling rate : 48.0 KHz
Bit depth : 16 bits
Compression mode : Lossy
Stream size : 33.2 MiB (4%)
Title : DUB [SDI Media]
Language : Russian
Default : Yes
Forced : No
Audio #2
ID : 3
Format : AC-3
Format/Info : Audio Coding 3
Mode extension : CM (complete main)
Format settings, Endianness : Big
Codec ID : A_AC3
Duration : 24mn 11s
Bit rate mode : Constant
Bit rate : 192 Kbps
Channel(s) : 2 channels
Channel positions : Front: L R
Sampling rate : 48.0 KHz
Bit depth : 16 bits
Compression mode : Lossy
Stream size : 33.2 MiB (4%)
Title : MVO [2x2]
Language : Russian
Default : No
Forced : No
Audio #3
ID : 4
Format : AC-3
Format/Info : Audio Coding 3
Mode extension : CM (complete main)
Format settings, Endianness : Big
Codec ID : A_AC3
Duration : 24mn 11s
Bit rate mode : Constant
Bit rate : 640 Kbps
Channel(s) : 6 channels
Channel positions : Front: L C R, Side: L R, LFE
Sampling rate : 48.0 KHz
Bit depth : 16 bits
Compression mode : Lossy
Stream size : 111 MiB (14%)
Title : DVO [SkyeFilmTV]
Language : Russian
Default : No
Forced : No
Audio #4
ID : 5
Format : AC-3
Format/Info : Audio Coding 3
Mode extension : CM (complete main)
Format settings, Endianness : Big
Codec ID : A_AC3
Duration : 24mn 11s
Bit rate mode : Constant
Bit rate : 640 Kbps
Channel(s) : 6 channels
Channel positions : Front: L C R, Side: L R, LFE
Sampling rate : 48.0 KHz
Bit depth : 16 bits
Compression mode : Lossy
Stream size : 111 MiB (14%)
Language : English
Default : No
Forced : No
Audio #5
ID : 6
Format : Vorbis
Format settings, Floor : 1
Codec ID : A_VORBIS
Duration : 24mn 11s
Bit rate mode : Variable
Bit rate : 64.0 Kbps
Channel(s) : 2 channels
Sampling rate : 48.0 KHz
Compression mode : Lossy
Stream size : 11.1 MiB (1%)
Title : [Commentary]
Writing library : aoTuV 20110424 (UTC 2011-04-24)
Language : English
Default : No
Forced : No
Text #1
ID : 7
Format : ASS
Codec ID : S_TEXT/ASS
Codec ID/Info : Advanced Sub Station Alpha
Compression mode : Lossless
Title : [Korra-Avatar]
Language : Russian
Default : No
Forced : No
Text #2
ID : 8
Format : UTF-8
Codec ID : S_TEXT/UTF8
Codec ID/Info : UTF-8 Plain Text
Language : English
Default : No
Forced : No
Menu
00:00:00.000 : en:00:00:00.000
00:07:05.592 : en:00:07:05.592
00:14:18.649 : en:00:14:18.649
00:23:35.581 : en:00:23:35.581
[cybertorrent.ru].t1629.torrent 
Торрент: Зарегистрирован [ 2018-02-16 08:13 ] · DA1FD3D2D39D5B2C5576BEEBE8249D4C973DF890

Скачать .torrent

Скачать

25 KB

Статус: проверено
Скачан: 0 раз
Размер: 9,07 GB
Профиль [ЛС]
Показать сообщения:    

Текущее время: 21-Ноя 14:04

Часовой пояс: UTC ± 0



Вы не можете начинать темы
Вы не можете отвечать на сообщения
Вы не можете редактировать свои сообщения
Вы не можете удалять свои сообщения
Вы не можете голосовать в опросах
Вы не можете прикреплять файлы к сообщениям
Вы можете скачивать файлы
Torrents24.ru открытый BitTorrent Torrents24.pl открытый BitTorrent CyberTorrent.ru открытый BitTorrent BtList.ru рейтинг BitTorrent трекеров Яндекс.Метрика