Статистика раздачи
Размер:  1,37 GB   |    Зарегистрирован:  3 месяца 6 дней   |    Скачан:  0 раз
Сидов:  17  [  0 KB/s  ]   Личеров:  3  [  0 KB/s  ]  
 
   
 
 

lopster ®

Пол:
Не указан
Стаж:
3 месяца 6 дней
Сообщений:
612

Русский характер- Жанр: Криминальная драма
Год выпуска: 2014
Продолжительность: 01:27:42
Режиссёр: Александр Якимчук
В ролях: Александр Фисенко, Сергей Никоненко, Евгений Бакалов, Егор Баринов, Кирилл Полухин, Александра Никифорова, Любовь Завадская, Мария Жиганова, Виталий Кузьмин, Дмитрий Парфёнов (II), Виктор Куклин, Ринат Ибрагимов, Алёна Азарова, Юрий Корнишин, Юрий Пимкин, Николай Калинин (II), Евгений Чернорай, Александр Науменко, Глеб Степан Каллистов, Витас Эйзенах, Александр Голубков (II)
Описание: 2013-й год. Украина. Военный моряк Максим Фадеев приезжает из Санкт-Петербурга в Крым, получив телеграмму о смерти деда. Здесь, в Крыму, прошло детство Максима. Отсюда он уехал поступать в Суворовское училище. Здесь живут его друзья и близкие...
Максим узнает, что расположенный на берегу моря поселок терроризирует банда некоего Ващука, жестокого и беспринципного наемника, финансирует которого олигарх Юрий Гаджало. Олигарх хочет выжить из поселка местных жителей, снести его и построить на этом месте дорогой отель с ресторанами и причалом для катеров. Узнав об этом, Фадеев встает на защиту жителей поселка, что приводит к конфликту с местной милицией, которая закрывает глаза на бесчинства бандитов и даже покрывает их. Вскоре местные жители, которые были запуганы и не сопротивлялись бесчинствам, начинают помогать Фадееву в его борьбе с бандой.-Сэмпл: http://multi-up.com/1138352-Качество видео: HDTVRip
Формат видео: AVI
Видео: 720x400 (16:9), 25.000 fps, XviD build 73, 2027 Kbps, 0.28 bits/pixel
Аудио: 48 kHz, AC3 Dolby Digital, 2 ch, 192 Kbps-Релиз-группа: -

MediaInfo

General
Complete name : Downloads\Russkiy.harakter.2014.HDTVRip.Files-x.avi
Format : AVI
Format/Info : Audio Video Interleave
File size : 1.37 GiB
Duration : 1h 27mn
Overall bit rate : 2 229 Kbps
Writing application : VirtualDubMod 1.5.10.3 | www.virtualdub-fr.org || (build 2550/release)
Writing library : VirtualDubMod build 2550/release
Video #0
ID : 0
Format : MPEG-4 Visual
Format profile : Advanced Simple@L5
Format settings, BVOP : 1
Format settings, QPel : No
Format settings, GMC : No warppoints
Format settings, Matrix : Custom
Codec ID : XVID
Codec ID/Hint : XviD
Duration : 1h 27mn
Bit rate : 2 027 Kbps
Width : 720 pixels
Height : 400 pixels
Display aspect ratio : 16:9
Frame rate : 25.000 fps
Color space : YUV
Chroma subsampling : 4:2:0
Bit depth : 8 bits
Scan type : Progressive
Compression mode : Lossy
Bits/(Pixel*Frame) : 0.282
Stream size : 1.24 GiB (91%)
Writing library : XviD 73
Audio #1
ID : 1
Format : AC-3
Format/Info : Audio Coding 3
Mode extension : CM (complete main)
Format settings, Endianness : Big
Codec ID : 2000
Duration : 1h 27mn
Bit rate mode : Constant
Bit rate : 192 Kbps
Channel(s) : 2 channels
Channel positions : Front: L R
Sampling rate : 48.0 KHz
Bit depth : 16 bits
Compression mode : Lossy
Stream size : 121 MiB (9%)
Alignment : Split accross interleaves
Interleave, duration : 40 ms (1.00 video frame)
Interleave, preload duration : 500 ms

Скриншот c названием фильма

Скриншоты

[cybertorrent.ru].t163.torrent 
Торрент: Зарегистрирован [ 2018-02-15 13:57 ] · F3176269D5E2F747FD92D445E0D7F866AC292565

Скачать .torrent

Скачать

14 KB

Статус: проверено
Скачан: 0 раз
Размер: 1,37 GB
Профиль [ЛС]
Показать сообщения:    

Текущее время: 22-Май 00:02

Часовой пояс: UTC ± 0



Вы не можете начинать темы
Вы не можете отвечать на сообщения
Вы не можете редактировать свои сообщения
Вы не можете удалять свои сообщения
Вы не можете голосовать в опросах
Вы не можете прикреплять файлы к сообщениям
Вы можете скачивать файлы