Статистика раздачи
Размер:  1002 MB   |    Зарегистрирован:  6 месяцев 18 дней   |    Скачан:  0 раз

Полного источника не было: Никогда

   
 

Гость ®

Пол:
Не указан

Дилемма / The Fix
Год выпуска: 2019
Страна: США
Жанр: драма
Продолжительность: ~00:43:00
Перевод: Профессиональный (многоголосый закадровый) Jaskier
Режиссёр: Майкл Кэтлман, Лариса Кондрацки, Эдвард Орнелас
В ролях: Робин Танни, Адевале Акинойе-Агбаже, Меррин Данги, Тейлор Калупа, Музам Маккар, Скотт Коэн, Алекс Саксон, Робби Джонс, Адам Рэйнер
Описание: Карьера непреклонного прокурора Майи Трэвис рушится, когда она проигрывает дело против кинозвезды, подозреваемой в убийстве. Годы спустя Майя возвращается, чтобы расследовать похожее преступление. Сериал «Правосудие» основан на оригинальной идее американского прокурора Марсии Кларк, которая прославилась после скандального дела над футболистом и актером О. Джей Симпсоном. Несгибаемого обвинителя сыграла Робин Танни («Конец света», «Вертикальный предел», «Менталист»). Восемь лет назад актер-миллионер с мировой славой Сэвви Джонсон предстал перед судом за убийство своей бывшей жены. Дело против кинозвезды вела принципиальный прокурор Майя Трэвис, которая стала мишенью общественной критики и яростных нападок прессы. Суд признал Джонсона невиновным. Потерпев скандальное поражение и разочаровавшись в правосудии, Майя уехала из Лос-Анджелеса в сельскую глубинку. У нее появляется шанс очистить свое имя, когда новую 26-летнюю любовницу Джонсона находят забитой до смерти. Майя возвращается, чтобы восстановить справедливость и расквитаться со старыми врагами – Джонсоном и его ловким адвокатом.

| Ссылка на предыдущие и альтернативные раздачи |-Качество: WEB-DLRip
Формат: AVI
Видео: XviD, ~ 1350 kbps, 720x400 (16:9), 23.976 fps
Аудио 1: MP3, 48,0 КГц, 2 ch, 128 kbps - Rus
Аудио 2: MP3, 48,0 КГц, 2 ch, 128 kbps - Eng
Субтитры: отсутствуют-Реклама: отсутствует.-

Релиз

Переведено и озвучено: студией Jaskier

MediaInfo

Код:Общее
Полное имя : G:\Загрузки\The.Fix.S01E01.WEB-DLRip.Rus.Eng.Jaskier.avi
Формат : AVI
Формат/Информация : Audio Video Interleave
Размер файла : 501 Мбайт
Продолжительность : 42 м. 59 с.
Общий поток : 1629 Кбит/сек
Программа кодирования : VirtualDubMod 1.5.10.3 | www.virtualdub-fr.org || (build 2550/release)
Библиотека кодирования : VirtualDubMod build 2550/release
Видео
Идентификатор : 0
Формат : MPEG-4 Visual
Профиль формата : Advanced Simple@L5
Настройки формата : BVOP1 / Custom Matrix
Параметр BVOP формата : 1
Параметр QPel формата : Нет
Параметр GMC формата : Без точки перехода
Параметр матрицы формата : Выборочная
Идентификатор кодека : XVID
Идентификатор кодека/Подсказка : XviD
Продолжительность : 42 м. 59 с.
Битрейт : 1359 Кбит/сек
Ширина : 720 пикселей
Высота : 400 пикселей
Соотношение сторон : 16:9
Частота кадров : 23,976 (24000/1001) кадра/сек
Цветовое пространство : YUV
Субдискретизация насыщенности : 4:2:0
Битовая глубина : 8 бит
Тип развёртки : Прогрессивная
Метод сжатия : С потерями
Бит/(Пиксели*Кадры) : 0.197
Размер потока : 418 Мбайт (83%)
Библиотека кодирования : XviD 73
Аудио #1
Идентификатор : 1
Формат : MPEG Audio
Версия формата : Version 1
Профиль формата : Layer 3
Настройки формата : Joint stereo / MS Stereo
Идентификатор кодека : 55
Идентификатор кодека/Подсказка : MP3
Продолжительность : 42 м. 59 с.
Вид битрейта : Постоянный
Битрейт : 128 Кбит/сек
Каналы : 2 канала
Частота : 48,0 КГц
Метод сжатия : С потерями
Размер потока : 39,4 Мбайт (8%)
Выравнивание : Соединение по промежуткам
Продолжительность промежутка : 42 мс. (1,00 видеокадр)
Время предзагрузки промежутка : 504 мс.
Аудио #2
Идентификатор : 2
Формат : MPEG Audio
Версия формата : Version 1
Профиль формата : Layer 3
Настройки формата : Joint stereo / MS Stereo
Идентификатор кодека : 55
Идентификатор кодека/Подсказка : MP3
Продолжительность : 42 м. 59 с.
Вид битрейта : Постоянный
Битрейт : 128 Кбит/сек
Каналы : 2 канала
Частота : 48,0 КГц
Метод сжатия : С потерями
Размер потока : 39,4 Мбайт (8%)
Выравнивание : Соединение по промежуткам
Продолжительность промежутка : 42 мс. (1,00 видеокадр)
Время предзагрузки промежутка : 504 мс.

Скриншоты

Раздача ведется путем добавления новых серий

Когда раздача ведётся путём добавления новых серий, при каждом добавлении создётся новый торрент. Чтобы начать докачку новой серии, пользователям необходимо сделать следующее:
(1) остановить скачивание,
(2) удалить старый торрент у себя из клиента (старые серии удалять не надо),
(3) скачать новый торрент и запустить его у себя в клиенте вместо старого, при этом указать клиенту путь в старую папку, куда и должно происходить скачивание новых серий.
Ваш клиент при этом должен произвести хеширование (проверку) старой папки (если не производит сам - помогите ему сделать это), и будет докачивать только те серии, которых у вас ещё нет. Старые серии при этом не удаляются, а продолжают раздаваться!
Eсли вы уже удалили старые серии, то предотвратить повторную закачку старых серий можно, отжав галочку в соответсвующих местах при запуске нового торрента. По возможности, желательно не удалять старые серии как можно дольше, чтобы релизёр не столько продолжал раздавать старые серии, а смог сконцентрироваться на новых.
-
-
Сообщения из этой темы [1 шт.] были выделены в отдельную тему Выделено из: Дилемма / The Fix / Сезон: 1 / Серии: 1-2 из 10 (Майкл Кэтлман, Лариса Кондрацки, Эдвард Орнелас) [2019, США, драма, WEB-DLRip] MVO (Jaskier) + Origin [5707456]
Wentworth_Miller
[cybertorrent.ru].t1633.torrent 
Торрент: Зарегистрирован [ 2019-03-31 15:52 ] · 1895FB7D043BB4C5B826F1F36AEE66FD87BD9E66

Скачать .torrent

Скачать

20 KB

Статус: проверено
Скачан: 0 раз
Размер: 1002 MB
terms.php
Показать сообщения:    

Текущее время: 19-Окт 04:08

Часовой пояс: UTC ± 0



Вы не можете начинать темы
Вы не можете отвечать на сообщения
Вы не можете редактировать свои сообщения
Вы не можете удалять свои сообщения
Вы не можете голосовать в опросах
Вы не можете прикреплять файлы к сообщениям
Вы можете скачивать файлы