Статистика раздачи
Размер:  1,26 GB   |    Зарегистрирован:  8 месяцев 27 дней   |    Скачан:  0 раз

Полного источника не было: Никогда

 
   
 
 

antikvar ®

Пол:
Не указан
Стаж:
9 месяцев
Сообщений:
50

Человек-Паук 1967: Сезон 1
Spider-Man 1967: Season One

Страна: США
Жанр: Мультсериал, приключения, по мотивам комикса
Продолжительность: 01:43:46 (5 серий x 20 минут)
Год выпуска: 1967
Перевод #1: Авторский (одноголосый закадровый: Алексей Михалёв) - серии #1, 2, 4a
Перевод #2: Авторский (одноголосый закадровый: Василий Горчаков) - серии #3, 4b, 5
Русские субтитры: отсутствуют-Режиссёры: Грант Симонс /Grant Simmons/, Клайд Джероними /Clyde Geronimi/, Сид Маркус /Sid Marcus/-Описание: Первая экранизация комиксов о Человеке-Пауке.-Серии:
#1.01: Мощь доктора Осьминога (Михалёв) + Температура ниже нуля и Паучок (Михалёв)
| The Power of Dr. Octopus + Sub-Zero for Spidey | http://sendfile.su/872600
#1.02: Там, где ползает Ящерила (Михалёв) + Электро, человек-молния (Михалёв)
| Where Crawls the Lizard + Electro the Human Lighning Bolt | http://sendfile.su/872605
#1.03: Угроза Мистерио (Горчаков)
| The Menace of Mysterio | http://sendfile.su/872606
#1.04: Небо падает на голову (Михалёв) + В руках Джея Джона Джеймесона (Горчаков)
| The Sky is Falling + Captured by J. Jonah Jameson | http://sendfile.su/872610
#1.05: Не наступайте на Скорпиона (Горчаков) + Преступный песок (Горчаков)
| Never Step on a Scorpion + Sands of Crime | http://sendfile.su/872611-Доп. информация: Во второй серии на промежутке 10:27-16:10 Михалёва "подменяет" неизвестный - так было на кассете, с которой оцифрована дорога.-Релиз:
multmir ... покупка DVD
bora86bora ... покупка и оцифровка VHS
Алексис ... синхронизация-Качество: DVDRip
Формат: AVI
Видео: 640x480 (1.33:1), 25 fps, XviD build 65 ~1329 kbps avg, 0.17 bit/pixel
Аудио #1: 48 kHz, AC3 Dolby Digital, 2/0 (L,R) ch, ~192.00 kbps avg (Михалёв) - серии #1, 2, 4a
Аудио #1: 48 kHz, AC3 Dolby Digital, 2/0 (L,R) ch, ~192.00 kbps avg (Горчаков) - серии #3, 4b, 5
Аудио #2: 48 kHz, AC3 Dolby Digital, 2/0 (L,R) ch, ~192.00 kbps avg (английский)
Субтитры: отсутствуют

Подробные технические данные

General
Complete name : F:\Spider-Man 1967 - 1x01 - The Power Of Dr. Octopus + Sub-Zero For Spidey.avi
Format : AVI
Format/Info : Audio Video Interleave
File size : 257 MiB
Duration : 20mn 46s
Overall bit rate : 1 729 Kbps
Writing application : VirtualDubMod 1.5.10.2 (build 2540/release)
Writing library : VirtualDubMod build 2540/release
Video
ID : 0
Format : MPEG-4 Visual
Format profile : Advanced Simple@L5
Format settings, BVOP : 2
Format settings, QPel : No
Format settings, GMC : No warppoints
Format settings, Matrix : Custom
Codec ID : XVID
Codec ID/Hint : XviD
Duration : 20mn 46s
Bit rate : 1 331 Kbps
Width : 640 pixels
Height : 480 pixels
Display aspect ratio : 4:3
Frame rate : 25.000 fps
Color space : YUV
Chroma subsampling : 4:2:0
Bit depth : 8 bits
Scan type : Progressive
Compression mode : Lossy
Bits/(Pixel*Frame) : 0.173
Stream size : 198 MiB (77%)
Writing library : XviD 65
Audio #1
ID : 1
Format : AC-3
Format/Info : Audio Coding 3
Mode extension : CM (complete main)
Format settings, Endianness : Big
Codec ID : 2000
Duration : 20mn 46s
Bit rate mode : Constant
Bit rate : 192 Kbps
Channel(s) : 2 channels
Channel positions : Front: L R
Sampling rate : 48.0 KHz
Bit depth : 16 bits
Compression mode : Lossy
Stream size : 28.5 MiB (11%)
Alignment : Split accross interleaves
Interleave, duration : 40 ms (1.00 video frame)
Interleave, preload duration : 500 ms
Audio #2
ID : 2
Format : AC-3
Format/Info : Audio Coding 3
Mode extension : CM (complete main)
Format settings, Endianness : Big
Codec ID : 2000
Duration : 20mn 46s
Bit rate mode : Constant
Bit rate : 192 Kbps
Channel(s) : 2 channels
Channel positions : Front: L R
Sampling rate : 48.0 KHz
Bit depth : 16 bits
Compression mode : Lossy
Stream size : 28.5 MiB (11%)
Alignment : Split accross interleaves
Interleave, duration : 40 ms (1.00 video frame)
Interleave, preload duration : 500 ms
- Все раздачи мультсериала
[cybertorrent.ru].t1634.torrent 
Торрент: Зарегистрирован [ 2018-02-16 08:13 ] · ED17D04BDEA363F3B329BF127A9638CE18C28783

Скачать .torrent

Скачать

13 KB

Статус: проверено
Скачан: 0 раз
Размер: 1,26 GB
Профиль [ЛС]
Показать сообщения:    

Текущее время: 15-Ноя 14:16

Часовой пояс: UTC ± 0



Вы не можете начинать темы
Вы не можете отвечать на сообщения
Вы не можете редактировать свои сообщения
Вы не можете удалять свои сообщения
Вы не можете голосовать в опросах
Вы не можете прикреплять файлы к сообщениям
Вы можете скачивать файлы
Torrents24.ru открытый BitTorrent Torrents24.pl открытый BitTorrent CyberTorrent.ru открытый BitTorrent BtList.ru рейтинг BitTorrent трекеров Яндекс.Метрика