Статистика раздачи
Размер:  548 MB   |    Зарегистрирован:  5 месяцев 7 дней   |    Скачан:  0 раз

Полного источника не было: Никогда

Личеров:  1  [  0 KB/s  ]  
 
   
 
 

android ®

Пол:
Не указан
Стаж:
5 месяцев 8 дней
Сообщений:
79

Черепашки-ниндзя / Teenage Mutant Ninja Turtles-- Год выпуска: 2013
Страна: США
Жанр: мультфильм, фантастика, боевик, комедия, приключения, ...-Продолжительность: 00:23:37-Перевод: Любительский (многоголосый закадровый){Saint Sound}
Субтитры: Отсутствуют-Режиссер: Juan Jose Meza-Leon, Алан Ван, Майкл Чанг
Сценарий: Джошуа Стернин, Джеффри Вентимилья, Кенни Байрли, ...
Продюсер: Джошуа Стернин, Питер Хатингс, МакГрегор Миддлтон, ...
Композитор: Себастьян Эванс
В ролях: Шон Эстин / Sean Astin (Raphael, озвучка), Джейсон Биггз / Jason Biggs (Leonardo, озвучка), Грег Сайпс / Greg Cipes (Michelangelo, озвучка), Роб Полсен / Rob Paulsen (Donatello, озвучка), Хун Ли / Hoon Lee (Splinter, озвучка), Мэй Уитман / Mae Whitman (April O'Neil, озвучка), Нолан Норт / Nolan North (Kraang #1, озвучка), Кевин Майкл Ричардсон / Kevin Michael Richardson (The Shredder, озвучка)- --Ссылка на предыдущие и альтернативные раздачи
Качество: WEB-DLRip
Формат: AVI
Видео кодек: XviD
Аудио кодеk: MP3
Видео: 720x400 (16:9), 23.976 fps,XviD, 1 475 Kbps
Аудио: MP3, 128 Kbps, 44.1 KHz, 2 ch RUS MVO

МедиаИнфо

General
Complete name : E:\ALLDownload\Проекты Saint Studio\TMNTFinalEp\TMNTE25.avi
Format : AVI
Format/Info : Audio Video Interleave
File size : 291 MiB
Duration : 23mn 44s
Overall bit rate : 1 711 Kbps
Writing application : Lavf51.12.1
Video
ID : 0
Format : xvid
Codec ID : xvid
Duration : 23mn 44s
Bit rate : 1 571 Kbps
Width : 720 pixels
Height : 400 pixels
Display aspect ratio : 16:9
Frame rate : 23.976 fps
Bits/(Pixel*Frame) : 0.228
Stream size : 267 MiB (92%)
Audio
ID : 1
Format : MPEG Audio
Format version : Version 1
Format profile : Layer 3
Mode : Joint stereo
Mode extension : MS Stereo
Codec ID : 55
Codec ID/Hint : MP3
Duration : 23mn 44s
Bit rate mode : Constant
Bit rate : 128 Kbps
Channel(s) : 2 channels
Sampling rate : 44.1 KHz
Compression mode : Lossy
Stream size : 21.7 MiB (7%)
Alignment : Aligned on interleaves
Interleave, duration : 26 ms (0.63 video frame)

Скриншоты

[cybertorrent.ru].t1637.torrent 
Торрент: Зарегистрирован [ 2018-02-16 08:13 ] · 3C53FAF9AD890C4791F24A8380D92F8CB41EEFA9

Скачать .torrent

Скачать

11 KB

Статус: проверено
Скачан: 0 раз
Размер: 548 MB
Профиль [ЛС]
Показать сообщения:    

Текущее время: 23-Июл 13:51

Часовой пояс: UTC ± 0



Вы не можете начинать темы
Вы не можете отвечать на сообщения
Вы не можете редактировать свои сообщения
Вы не можете удалять свои сообщения
Вы не можете голосовать в опросах
Вы не можете прикреплять файлы к сообщениям
Вы можете скачивать файлы