Статистика раздачи
Размер:  3,1 GB   |    Зарегистрирован:  7 месяцев 13 дней   |    Скачан:  0 раз
DL-List: Нет

Полного источника не было: Никогда

 
     
 
 

солнышко ®

Пол:
Не указан
Стаж:
8 месяцев 1 день
Сообщений:
565

Хроники хищных городов / Mortal Engines
Слоган: «Some scars never heal»
Страна: Новая Зеландия, США
Жанр: фантастика, фэнтези, боевик, триллер, приключения
Год выпуска: 2018
Продолжительность: 02:08:21
Перевод: Профессиональный (дублированный) iTunes
Оригинальная аудиодорожка: английский
Субтитры: Русские (Форсированные, Полные), Украинские (Форсированные), Английские (Full, SDH, SDH-Colored)
Навигация по главам: есть--Режиссер: Кристиан Риверс / Christian Rivers--В ролях: Хера Хильмар, Роберт Шиэн, Хьюго Уивинг, Джихе, Ронан Рафтери, Лейла Джордж, Патрик Мэлахайд, Стивен Лэнг, Колин Сэлмон, Марк Митчинсон...--Описание: Прошли тысячелетия после того, как мир настиг апокалипсис. Человечество адаптировалось и теперь живет по новым правилам. Гигантские движущиеся мегаполисы рассекают пустоши и поглощают маленькие города ради ресурсов. Том Нэтсуорти из нижнего уровня великого Лондона оказывается в смертельной опасности, когда на его пути появляется скрывающаяся от закона бунтарка Эстер Шоу. Они не должны были встретиться, но им суждено изменить будущее.--Доп. информация: | IMDB | КиноПоиск | Сэмпл | --Качество видео: BDRip-AVC Mortal.Engines(2018)BDRemux.Кинозал.ТВ
Формат видео: MKV
Видео: AVC, 1132x474p (2.40:1), 2430 kbps, 23.976 fps, 0.189 bit/pixel
Аудио 1: AC3 Dolby Digital, 3/2 (L,C,R,l,r) + LFE ch, 48.0 KHz, 384 Kbps | Дубляж. Русский |
Аудио 2: AC3 Dolby Digital, 2/0 (L,R) ch, 48 kHz, 192 kbps | Дубляж. Украинский |
Аудио 3: AC3 Dolby Digital, 3/2 (L,C,R,l,r) + LFE ch, 48.0 KHz, 448 Kbps | Оригинал. Английский |
Формат субтитров: softsub (SRT)

Скриншоты

MediaInfo/x264

x264

raw [info]: 1132x474p 1:1 @ 24000/1001 fps (cfr)
x264 [info]: using SAR=1/1
x264 [info]: using cpu capabilities: MMX2 SSE2Fast SSSE3 SSE4.2 AVX
x264 [info]: profile High, level 4.1, 4:2:0, 8-bit
x264 [info]: frame I:1527 Avg QP:14.31 size: 65711
x264 [info]: frame P:42751 Avg QP:16.08 size: 26514
x264 [info]: frame B:140364 Avg QP:19.24 size: 7867
x264 [info]: consecutive B-frames: 2.5% 3.4% 10.4% 29.8% 16.2% 23.8% 3.9% 6.0% 0.7% 0.4% 0.3% 2.1% 0.2% 0.1% 0.1% 0.1%
x264 [info]: mb I I16..4: 5.8% 75.7% 18.5%
x264 [info]: mb P I16..4: 1.6% 17.3% 2.6% P16..4: 34.8% 22.5% 14.4% 0.8% 0.2% skip: 5.7%
x264 [info]: mb B I16..4: 0.1% 1.2% 0.2% B16..8: 38.6% 13.2% 3.3% direct: 6.6% skip:36.9% L0:42.4% L1:43.4% BI:14.1%
x264 [info]: 8x8 transform intra:79.3% inter:65.4%
x264 [info]: coded y,uvDC,uvAC intra: 86.2% 88.1% 72.2% inter: 23.1% 21.4% 6.3%
x264 [info]: i16 v,h,dc,p: 14% 10% 7% 68%
x264 [info]: i8 v,h,dc,ddl,ddr,vr,hd,vl,hu: 11% 10% 5% 9% 13% 13% 13% 12% 14%
x264 [info]: i4 v,h,dc,ddl,ddr,vr,hd,vl,hu: 9% 7% 4% 11% 16% 14% 14% 11% 13%
x264 [info]: i8c dc,h,v,p: 44% 23% 18% 16%
x264 [info]: Weighted P-Frames: Y:9.0% UV:5.5%
x264 [info]: ref P L0: 51.7% 11.4% 14.9% 5.9% 4.4% 3.2% 2.5% 1.5% 1.3% 1.1% 1.0% 1.0% 0.1% 0.0%
x264 [info]: ref B L0: 79.6% 9.1% 4.3% 2.2% 1.4% 1.1% 0.9% 0.5% 0.5% 0.3% 0.1%
x264 [info]: ref B L1: 95.4% 4.6%
x264 [info]: kb/s:2428.85
General
Unique ID : 245601002254918541317168091689927477596 (0xB8C5084F645D0CDC87758F4A20C6895C)
Complete name : Mortal.Engines (2018).mkv
Format : Matroska
Format version : Version 4
File size : 3.10 GiB
Duration : 2 h 8 min
Overall bit rate : 3 456 kb/s
Movie name : Хроники хищных городов / Mortal Engines (2018)
Encoded date : UTC 2019-03-30 21:13:26
Writing application : mkvmerge v8.1.0 ('Psychedelic Postcard') 64bit
Writing library : libebml v1.3.1 + libmatroska v1.4.2
Cover : Yes
Attachments : cover.jpg
Video
ID : 1
Format : AVC
Format/Info : Advanced Video Codec
Format profile : High@L4.1
Format settings : CABAC / 12 Ref Frames
Format settings, CABAC : Yes
Format settings, ReFrames : 12 frames
Codec ID : V_MPEG4/ISO/AVC
Duration : 2 h 8 min
Bit rate : 2 429 kb/s
Width : 1 132 pixels
Height : 474 pixels
Display aspect ratio : 2.40:1
Frame rate mode : Constant
Frame rate : 23.976 (24000/1001) FPS
Color space : YUV
Chroma subsampling : 4:2:0
Bit depth : 8 bits
Scan type : Progressive
Bits/(Pixel*Frame) : 0.189
Stream size : 2.18 GiB (70%)
Title : Mortal Engines (2018) By optik.1557
Writing library : x264 core 157 r2935 545de2f
Encoding settings : cabac=1 / ref=12 / deblock=1:-3:-2 / analyse=0x3:0x133 / me=umh / subme=10 / psy=1 / psy_rd=1.05:0.01 / mixed_ref=1 / me_range=32 / chroma_me=1 / trellis=2 / 8x8dct=1 / cqm=0 / deadzone=21,11 / fast_pskip=0 / chroma_qp_offset=-3 / threads=6 / lookahead_threads=1 / sliced_threads=0 / nr=0 / decimate=1 / interlaced=0 / bluray_compat=0 / constrained_intra=0 / bframes=15 / b_pyramid=2 / b_adapt=2 / b_bias=0 / direct=1 / weightb=1 / open_gop=0 / weightp=2 / keyint=250 / keyint_min=23 / scenecut=40 / intra_refresh=0 / rc_lookahead=60 / rc=crf / mbtree=0 / crf=17.7 / qcomp=0.70 / qpmin=0 / qpmax=69 / qpstep=4 / vbv_maxrate=50000 / vbv_bufsize=62500 / crf_max=0.0 / nal_hrd=none / filler=0 / ip_ratio=1.40 / pb_ratio=1.30 / aq=3:0.85
Language : English
Default : Yes
Forced : No
Audio #1
ID : 2
Format : AC-3
Format/Info : Audio Coding 3
Commercial name : Dolby Digital
Codec ID : A_AC3
Duration : 2 h 8 min
Bit rate mode : Constant
Bit rate : 384 kb/s
Channel(s) : 6 channels
Channel layout : L R C LFE Ls Rs
Sampling rate : 48.0 kHz
Frame rate : 31.250 FPS (1536 SPF)
Bit depth : 16 bits
Compression mode : Lossy
Stream size : 352 MiB (11%)
Title : Дубляж (iTunes)
Language : Russian
Service kind : Complete Main
Default : Yes
Forced : No
Audio #2
ID : 3
Format : AC-3
Format/Info : Audio Coding 3
Commercial name : Dolby Digital
Codec ID : A_AC3
Duration : 2 h 8 min
Bit rate mode : Constant
Bit rate : 192 kb/s
Channel(s) : 2 channels
Channel layout : L R
Sampling rate : 48.0 kHz
Frame rate : 31.250 FPS (1536 SPF)
Bit depth : 16 bits
Compression mode : Lossy
Stream size : 176 MiB (6%)
Title : Дубляж (LeDoyen)
Language : Ukrainian
Service kind : Complete Main
Default : No
Forced : No
Audio #3
ID : 4
Format : AC-3
Format/Info : Audio Coding 3
Commercial name : Dolby Digital
Codec ID : A_AC3
Duration : 2 h 8 min
Bit rate mode : Constant
Bit rate : 448 kb/s
Channel(s) : 6 channels
Channel layout : L R C LFE Ls Rs
Sampling rate : 48.0 kHz
Frame rate : 31.250 FPS (1536 SPF)
Bit depth : 16 bits
Compression mode : Lossy
Stream size : 411 MiB (13%)
Title : Original
Language : English
Service kind : Complete Main
Default : No
Forced : No
Text #1
ID : 5
Format : UTF-8
Codec ID : S_TEXT/UTF8
Codec ID/Info : UTF-8 Plain Text
Duration : 1 h 43 min
Bit rate : 1 b/s
Count of elements : 19
Stream size : 852 Bytes (0%)
Title : Форсированные
Language : Russian
Default : Yes
Forced : No
Text #2
ID : 6
Format : UTF-8
Codec ID : S_TEXT/UTF8
Codec ID/Info : UTF-8 Plain Text
Duration : 1 h 57 min
Bit rate : 74 b/s
Count of elements : 1332
Stream size : 63.8 KiB (0%)
Title : Полные
Language : Russian
Default : No
Forced : No
Text #3
ID : 7
Format : UTF-8
Codec ID : S_TEXT/UTF8
Codec ID/Info : UTF-8 Plain Text
Duration : 1 h 33 min
Bit rate : 0 b/s
Count of elements : 10
Stream size : 403 Bytes (0%)
Title : Форсированные
Language : Ukrainian
Default : No
Forced : No
Text #4
ID : 8
Format : UTF-8
Codec ID : S_TEXT/UTF8
Codec ID/Info : UTF-8 Plain Text
Duration : 1 h 57 min
Bit rate : 38 b/s
Count of elements : 1074
Stream size : 33.0 KiB (0%)
Title : Full
Language : English
Default : No
Forced : No
Text #5
ID : 9
Format : UTF-8
Codec ID : S_TEXT/UTF8
Codec ID/Info : UTF-8 Plain Text
Duration : 2 h 8 min
Bit rate : 48 b/s
Count of elements : 1853
Stream size : 45.9 KiB (0%)
Title : SDH
Language : English
Default : No
Forced : No
Text #6
ID : 10
Format : UTF-8
Codec ID : S_TEXT/UTF8
Codec ID/Info : UTF-8 Plain Text
Duration : 1 h 57 min
Bit rate : 66 b/s
Count of elements : 1493
Stream size : 57.4 KiB (0%)
Title : SDH-Colored
Language : English
Default : No
Forced : No
Menu
00:00:00.000 : :Chapter 01
00:09:24.397 : :Chapter 02
00:16:13.306 : :Chapter 03
00:24:20.626 : :Chapter 04
00:31:24.591 : :Chapter 05
00:35:53.068 : :Chapter 06
00:41:27.819 : :Chapter 07
00:44:53.816 : :Chapter 08
00:50:16.805 : :Chapter 09
00:54:21.175 : :Chapter 10
01:00:51.398 : :Chapter 11
01:07:12.070 : :Chapter 12
01:11:12.852 : :Chapter 13
01:17:37.736 : :Chapter 14
01:25:25.620 : :Chapter 15
01:33:30.396 : :Chapter 16
01:39:28.546 : :Chapter 17
01:47:58.263 : :Chapter 18
01:52:11.558 : :Chapter 19
01:58:33.523 : :Chapter 20
[cybertorrent.ru].t1637.torrent 
Торрент: Зарегистрирован [ 2019-03-31 15:52 ] · 0AF219C137CFDE4AF737C3F044C2949F6E123A3E

Скачать .torrent

Скачать

16 KB

Статус: проверено
Скачан: 0 раз
Размер: 3,1 GB
terms.php
Профиль ЛС
Показать сообщения:    

Текущее время: 14-Ноя 06:06

Часовой пояс: UTC ± 0



Вы не можете начинать темы
Вы не можете отвечать на сообщения
Вы не можете редактировать свои сообщения
Вы не можете удалять свои сообщения
Вы не можете голосовать в опросах
Вы не можете прикреплять файлы к сообщениям
Вы можете скачивать файлы