Статистика раздачи
Размер:  2,92 GB   |    Зарегистрирован:  3 месяца 11 дней   |    Скачан:  0 раз

Полного источника не было: Никогда

 
   
 
 

lopster ®

Пол:
Не указан
Стаж:
3 месяца 11 дней
Сообщений:
612

Жмурки
Жанр: комедия, криминал
Год выпуска: 2005
Продолжительность: 01:49:43
Режиссёр: Алексей Балабанов
В ролях: Алексей Панин, Дмитрий Дюжев, Никита Михалков, Сергей Маковецкий, Виктор Сухоруков, Дмитрий Певцов, Кирилл Пирогов, Алексей Серебряков, Андрей Мерзликин, Юрий Степанов, Григорий Сиятвинда, Анатолий Журавлев, Гарик Сукачев, Андрей Панин, Александр Баширов, Андрей Краско, Рената Литвинова, Татьяна Догилева, Сергей Глазунов, Жанна Болотова, Степан Бекетов
Описание: Депутаты Госдумы вспоминают как в лихие девяностые саботировали деятельность местной ОПГ, возглавляемой известным кинорежиссером, выполняли функции госнаркоконтроля, боролись с оборотнями в погонах, интернациональной шпаной и прочим беспределом, творящимся на улицах их родного города.
Сэмпл: http://sendfile.su/1304858
Качество видео: BDRip-AVC
Формат видео: MKV
Видео: x264, 1024x576 (16:9), 23.976 fps, 3356 kbps, 0.24 bpp
Аудио: russian, AC3, 48 kHz, 448 kbps, 5.1
Субтитры: english, SRT

MediaInfo

General
Complete name : Zhmurki.2005.BDRip.AVC.mkv
Format : Matroska
Format version : Version 4 / Version 2
File size : 2.92 GiB
Duration : 1h 51mn
Overall bit rate : 3 755 Kbps
Movie name : Жмурки (2005)
Encoded date : UTC 2017-02-02 12:48:25
Writing application : mkvmerge v9.8.0 ('Kuglblids') 64bit
Writing library : libebml v1.3.4 + libmatroska v1.4.5
Video
ID : 1
Format : AVC
Format/Info : Advanced Video Codec
Format profile : High@L4.1
Format settings, CABAC : Yes
Format settings, ReFrames : 12 frames
Codec ID : V_MPEG4/ISO/AVC
Duration : 1h 49mn
Bit rate : 3 356 Kbps
Width : 1 024 pixels
Height : 576 pixels
Display aspect ratio : 16:9
Frame rate mode : Constant
Frame rate : 23.976 (24000/1001) fps
Color space : YUV
Chroma subsampling : 4:2:0
Bit depth : 8 bits
Scan type : Progressive
Bits/(Pixel*Frame) : 0.237
Stream size : 2.57 GiB (88%)
Writing library : x264 core 148 r2744 b97ae06
Encoding settings : cabac=1 / ref=12 / deblock=1:-2:-2 / analyse=0x3:0x133 / me=umh / subme=10 / psy=1 / psy_rd=1.05:0.00 / mixed_ref=1 / me_range=64 / chroma_me=1 / trellis=2 / 8x8dct=1 / cqm=0 / deadzone=21,11 / fast_pskip=0 / chroma_qp_offset=-2 / threads=6 / lookahead_threads=1 / sliced_threads=0 / nr=0 / decimate=1 / interlaced=0 / bluray_compat=0 / constrained_intra=0 / bframes=16 / b_pyramid=2 / b_adapt=2 / b_bias=0 / direct=3 / weightb=1 / open_gop=0 / weightp=2 / keyint=240 / keyint_min=23 / scenecut=40 / intra_refresh=0 / rc_lookahead=40 / rc=2pass / mbtree=0 / bitrate=3356 / ratetol=1.0 / qcomp=0.60 / qpmin=0 / qpmax=69 / qpstep=4 / cplxblur=20.0 / qblur=0.5 / vbv_maxrate=50000 / vbv_bufsize=50000 / nal_hrd=none / filler=0 / ip_ratio=1.40 / pb_ratio=1.30 / aq=1:1.00
Language : Russian
Default : Yes
Forced : No
Color range : Limited
Matrix coefficients : BT.709
Audio
ID : 2
Format : AC-3
Format/Info : Audio Coding 3
Mode extension : CM (complete main)
Format settings, Endianness : Big
Codec ID : A_AC3
Duration : 1h 51mn
Bit rate mode : Constant
Bit rate : 448 Kbps
Channel(s) : 6 channels
Channel positions : Front: L C R, Side: L R, LFE
Sampling rate : 48.0 KHz
Frame rate : 31.250 fps (1536 spf)
Compression mode : Lossy
Stream size : 357 MiB (12%)
Language : Russian
Default : Yes
Forced : No
Text
ID : 3
Format : UTF-8
Codec ID : S_TEXT/UTF8
Codec ID/Info : UTF-8 Plain Text
Duration : 1h 46mn
Bit rate : 50 bps
Count of elements : 1073
Stream size : 39.5 KiB (0%)
Language : English
Default : No
Forced : No
Menu
00:00:00.000 : en:00:00:00.000
00:09:53.593 : en:00:09:53.593
00:21:09.268 : en:00:21:09.268
00:31:51.910 : en:00:31:51.910
00:39:18.356 : en:00:39:18.356
00:49:49.987 : en:00:49:49.987
01:00:00.597 : en:01:00:00.597
01:09:01.137 : en:01:09:01.137
01:20:01.797 : en:01:20:01.797
01:30:21.416 : en:01:30:21.416
01:39:04.939 : en:01:39:04.939
01:44:45.279 : en:01:44:45.279

x264

raw [info]: 1024x576p 1:1 @ 24000/1001 fps (cfr)
x264 [info]: using SAR=1/1
x264 [info]: using cpu capabilities: MMX2 SSE2Fast SSSE3 SSE4.2 AVX FMA3 AVX2 LZCNT BMI2
x264 [info]: profile High, level 4.1
x264 [info]: frame I:965 Avg QP:16.37 size:113102
x264 [info]: frame P:27919 Avg QP:18.85 size: 40131
x264 [info]: frame B:128952 Avg QP:20.72 size: 11876
x264 [info]: consecutive B-frames: 0.8% 0.6% 2.4% 7.6% 13.2% 58.9% 7.7% 1.9% 4.6% 0.6% 0.6% 0.4% 0.1% 0.2% 0.3% 0.1% 0.1%
x264 [info]: mb I I16..4: 1.9% 79.5% 18.6%
x264 [info]: mb P I16..4: 0.2% 8.2% 0.8% P16..4: 34.4% 28.4% 23.7% 1.0% 0.4% skip: 3.1%
x264 [info]: mb B I16..4: 0.0% 0.4% 0.0% B16..8: 36.1% 14.4% 6.1% direct: 7.2% skip:35.8% L0:44.4% L1:40.7% BI:14.8%
x264 [info]: 8x8 transform intra:87.0% inter:50.7%
x264 [info]: direct mvs spatial:99.6% temporal:0.4%
x264 [info]: coded y,uvDC,uvAC intra: 96.6% 92.0% 78.4% inter: 30.9% 20.1% 4.0%
x264 [info]: i16 v,h,dc,p: 58% 15% 11% 16%
x264 [info]: i8 v,h,dc,ddl,ddr,vr,hd,vl,hu: 11% 8% 12% 9% 12% 12% 11% 11% 12%
x264 [info]: i4 v,h,dc,ddl,ddr,vr,hd,vl,hu: 11% 8% 3% 9% 15% 15% 14% 12% 12%
x264 [info]: i8c dc,h,v,p: 46% 20% 20% 14%
x264 [info]: Weighted P-Frames: Y:2.2% UV:1.0%
x264 [info]: ref P L0: 40.1% 12.5% 14.3% 7.8% 6.1% 5.0% 4.1% 2.7% 2.3% 2.0% 1.7% 1.4% 0.0% 0.0%
x264 [info]: ref B L0: 67.4% 13.2% 6.4% 3.6% 2.7% 2.1% 1.8% 1.1% 0.9% 0.6% 0.2%
x264 [info]: ref B L1: 94.1% 5.9%
x264 [info]: kb/s:3355.23
encoded 157836 frames, 10.12 fps, 3355.23 kb/s

Сравнение с исходником

Rip | Source


Скриншот c названием фильма

Скриншоты

[cybertorrent.ru].t164.torrent 
Торрент: Зарегистрирован [ 2018-02-15 13:57 ] · 802CC1F1791898AC7BCCF156948C35A9E4934A1E

Скачать .torrent

Скачать

15 KB

Статус: проверено
Скачан: 0 раз
Размер: 2,92 GB
Профиль [ЛС]
Показать сообщения:    

Текущее время: 27-Май 01:29

Часовой пояс: UTC ± 0



Вы не можете начинать темы
Вы не можете отвечать на сообщения
Вы не можете редактировать свои сообщения
Вы не можете удалять свои сообщения
Вы не можете голосовать в опросах
Вы не можете прикреплять файлы к сообщениям
Вы можете скачивать файлы