Статистика раздачи
Размер:  6,77 GB   |    Зарегистрирован:  7 месяцев 11 дней   |    Скачан:  0 раз
DL-List: Нет

Полного источника не было: Никогда

 
     
 
 

MAGNAT ®

Пол:
Мужской
Стаж:
1 год 7 месяцев
Сообщений:
9096

Домой засветло l Домой до темноты l Home Before Dark- Год выпуска: 2020
Страна: США
Жанр: Детектив, криминал
Продолжительность: ~ 00:50:00-Перевод: Профессиональный (многоголосый закадровый) l AlexFilm-Режиссёр: Розмари Родригез, Кэт Кэндлер, Джон М. Чу, Джим МакКэй, Кейт Вудс-В ролях: Мила Морган, Бруклин Принс, Кайли Роджерс, Рид Бирни, Джоэль Картер, Луис Хертэм, Николас Холмс, Адриан Хью, Дерик Маккейб, Эбби Миллер и другие.-Описание: Юная журналистка-расследовательница переезжает из Бруклина в городок своего отца и обнаруживает там правду о страшном преступлении, которое жители, включая папу, тщательно скрывают.-Качество: WEB-DLRip
Формат: AVI
Видео: XviD, 704x352 (2,000), 23.976 кадров/сек, ~1600 Кбит/сек
Аудио Rus: AC3, 48,0 kHz, 2 ch, 192 Кбит/сек l AlexFilm
Аудио Eng: AC3, 48,0 kHz, 2 ch, 192 Кбит/сек
Субтитры: Русские (Full), английские (SDH)
Реклама: Отсутствует-

Список серий

01. Magic Hour
02. Never Be the Same
03. Sting Like a Bee
04. The Bird, Man
05. The Green Bike
06. 88 Miles an Hour
07. Search Party
08. The Future Is Female
09. Superhero Monster Slayer
10. Bigger Than All of Us
-

MediaInfo

Общее
Полное имя : D:\Home Before Dark (Season 1) WEB-DLRip\Home.Before.Dark.S01E01.WEB-DLRip.RGzsRutracker.[Wentworth_Miller].avi
Формат : AVI
Формат/Информация : Audio Video Interleave
Размер файла : 779 Мбайт
Продолжительность : 54 м. 30 с.
Общий поток : 1 998 Кбит/сек
Программа кодирования : VirtualDubMod 1.5.10.3 | www.virtualdub-fr.org || (build 2550/release)
Видео
Идентификатор : 0
Формат : MPEG-4 Visual
Профиль формата : Advanced Simple@L5
Настройки формата : BVOP1
Параметр BVOP формата : 1
Параметр QPel формата : Нет
Параметр GMC формата : Без точки перехода
Параметр матрицы формата : Default (MPEG)
Идентификатор кодека : XVID
Идентификатор кодека/Подсказка : XviD
Продолжительность : 54 м. 30 с.
Битрейт : 1 600 Кбит/сек
Ширина : 704 пикселя
Высота : 352 пикселя
Соотношение сторон : 2,000
Частота кадров : 23,976 (24000/1001) кадра/сек
Цветовое пространство : YUV
Субдискретизация насыщенности : 4:2:0
Битовая глубина : 8 бит
Тип развёртки : Прогрессивная
Метод сжатия : С потерями
Бит/(Пиксели*Кадры) : 0.269
Размер потока : 624 Мбайт (80%)
Библиотека кодирования : XviD 67
Аудио #1
Идентификатор : 1
Формат : AC-3
Формат/Информация : Audio Coding 3
Коммерческое название : Dolby Digital
Идентификатор кодека : 2000
Продолжительность : 54 м. 30 с.
Вид битрейта : Постоянный
Битрейт : 192 Кбит/сек
Каналы : 2 канала
Channel layout : L R
Частота : 48,0 КГц
Частота кадров : 31,250 кадров/сек (1536 SPF)
Метод сжатия : С потерями
Размер потока : 74,9 Мбайт (10%)
Выравнивание : Разделение по промежуткам
Продолжительность промежутка : 42 мс. (1,00 видеокадр)
Время предзагрузки промежутка : 500 мс.
Service kind : Complete Main
Аудио #2
Идентификатор : 2
Формат : AC-3
Формат/Информация : Audio Coding 3
Коммерческое название : Dolby Digital
Идентификатор кодека : 2000
Продолжительность : 54 м. 30 с.
Вид битрейта : Постоянный
Битрейт : 192 Кбит/сек
Каналы : 2 канала
Channel layout : L R
Частота : 48,0 КГц
Частота кадров : 31,250 кадров/сек (1536 SPF)
Метод сжатия : С потерями
Размер потока : 74,9 Мбайт (10%)
Выравнивание : Разделение по промежуткам
Продолжительность промежутка : 42 мс. (1,00 видеокадр)
Время предзагрузки промежутка : 500 мс.
Service kind : Complete Main
-

Скриншоты

-
[cybertorrent.ru].t16475.torrent 
Торрент: Зарегистрирован [ 2020-04-15 18:52 ] · 19F089BE2AF79F7AEFA035F8EF43C7C7E06DEEE9

Скачать .torrent

Скачать

37 KB

Статус: проверено
Скачан: 0 раз
Размер: 6,77 GB  ·  Тип торрента
terms.php
Профиль [ЛС]
Показать сообщения:    

Текущее время: 27-Ноя 09:21

Часовой пояс: UTC ± 0



Вы не можете начинать темы
Вы не можете отвечать на сообщения
Вы не можете редактировать свои сообщения
Вы не можете удалять свои сообщения
Вы не можете голосовать в опросах
Вы не можете прикреплять файлы к сообщениям
Вы можете скачивать файлы