Статистика раздачи
Размер:  12,86 GB   |    Зарегистрирован:  7 месяцев 6 дней   |    Скачан:  0 раз

Полного источника не было: Никогда

 
   
 
 

Alino4ka ®

Пол:
Не указан
Стаж:
7 месяцев 7 дней
Сообщений:
137

-Утиные Истории / Duck Tales- Английское название: Duck Tales
Русское название: Утиные Истории
Год выпуска: 1987-1990
Страна: США.
Жанр: Анимация, комедия.
Продолжительность: ТВ (100 эп.), ~ 23 минуты
Перевод: Профессиональный (Полное Дублирование) ТЦ Останкино
Субтитры: Нет-Режиссёр: Девид Блок / David Block
Описание: Утиные истории» — телевизионный мультсериал, созданный компанией Уолта Диснея. В нём рассказывается о приключениях уток из комиксов и историй знаменитого Карла Баркса. Это был самый успешный мультсериал компании Walt Disney и до сих пор является лидером среди всех сериалов этой компании. Было задумано сделать качественный мультсериал, поэтому в создание "Утиных историй" были вложены огромные деньги, не смотря на то, что создание такого проекта было довольно рискованным делом. Главными героями мультсериала являются переработанные классические диснеевские персонажи: Скрудж Макдак (Scrooge McDuck) и его племянники — Билли (Хьюи), Вилли (Дьюи) и Дилли (Луи). Данный сериал был вторым в своём роде (первым мультсериалом был «Приключения мишек Гамми») и впоследствии открыл дорогу другим сериалам Диснея. Позже был также снят другой сериал в той же вселенной — «Чёрный Плащ» и "Кряк-бряк". Данный мультсериал является обладателем 3-х премий Эмми, а также вошёл в 2009 году в TOP100 лучших мультсериалов мира и занял 18 позицию (1 среди сериалов Дисней) по версии IGN, также его главный персонаж Скрудж Макдак стал почётным вымышленным гражданином Шотландии в 2007 году, а в 2008 стал самым богатым вымышленным персонажем в мире (в 2010 стал вторым, уступив дядюшке Сэму).-Релиз от: ALEKS KV-Над релизом работали:
ALEKS KV .......Предоставил кассеты, оцифровка

Ссылка на остальные раздачи

Доп. Информация:
Запись с канала ОРТ 1998,2000 годов. Раритет для коллекционеров. Выкладывается по просьбе трудящихся.
В первой серии присутствует заставка "Дисней Новости", а так же сами новости.
Сэмпл
Качество: VHSRip
Формат видео: MPEG2
Контейнер: MPG
Аудио кодек: MP2
Видео: MPEG2 Video 720x576 (4:3) 25.00fps 9500Kbps
Аудио:

  • русская: MPEG Layer 2 48000Hz stereo 256Kbps [Дубляж "ТЦ Останкино"]-

    Наличие серий в раздаче

    001. Не сдавать корабль!
    018. Герой по найму
    022. Загадки Бермудского Треугольника
    023. Лошадкины Штучки
    024. Проклятье замка МакДак
    025. Оборотни
    026. Супер Пупс
    (Не до конца)
    027. Отель "Стрэндж Дак"
    028. Решающая битва Зигзага
    (Чуть-чуть не сначала)

    Подробные технические данные

    General
    Complete name : X:\XXXXXXXXXX\Duck Tales 024.mpg
    Format : MPEG-PS
    File size : 1.54 GiB
    Duration : 22mn 15s
    Overall bit rate mode : Variable
    Overall bit rate : 9 909 Kbps
    Writing library : (c) 1998-2007 Womble Multimedia, Inc. / MPEG Video Wizard (12/2007) / Mar 31 2008
    Video
    ID : 224 (0xE0)
    Format : MPEG Video
    Format version : Version 2
    Format profile : Main@Main
    Format settings, BVOP : Yes
    Format settings, Matrix : Custom
    Format settings, GOP : Variable
    Duration : 22mn 15s
    Bit rate mode : Variable
    Bit rate : 9 500 Kbps
    Width : 720 pixels
    Height : 576 pixels
    Display aspect ratio : 4:3
    Frame rate : 25.000 fps
    Standard : PAL
    Color space : YUV
    Chroma subsampling : 4:2:0
    Bit depth : 8 bits
    Scan type : Interlaced
    Scan order : Top Field First
    Compression mode : Lossy
    Bits/(Pixel*Frame) : 0.916
    Time code of first frame : 00:00:00:00
    Time code source : Group of pictures header
    Stream size : 1.47 GiB (95%)
    Writing library : (c) 1998-2007 Womble Multimedia, Inc. / MPEG Video Wizard (12/2007) / Mar 31 2008
    Audio
    ID : 192 (0xC0)
    Format : MPEG Audio
    Format version : Version 1
    Format profile : Layer 2
    Duration : 22mn 15s
    Bit rate mode : Constant
    Bit rate : 256 Kbps
    Channel(s) : 2 channels
    Sampling rate : 48.0 KHz
    Compression mode : Lossy
    Delay relative to video : -80ms
    Stream size : 40.8 MiB (3%)

    Скриншоты

    [cybertorrent.ru].t1648.torrent 
    Торрент: Зарегистрирован [ 2018-02-16 08:13 ] · A9EB9F0E72E03CB68BC0F9BA67772D2C462C9F8D

    Скачать .torrent

    Скачать

    65 KB

    Статус: проверено
    Скачан: 0 раз
    Размер: 12,86 GB
  • Профиль [ЛС]
    Показать сообщения:    

    Текущее время: 22-Сен 19:05

    Часовой пояс: UTC ± 0



    Вы не можете начинать темы
    Вы не можете отвечать на сообщения
    Вы не можете редактировать свои сообщения
    Вы не можете удалять свои сообщения
    Вы не можете голосовать в опросах
    Вы не можете прикреплять файлы к сообщениям
    Вы можете скачивать файлы
    Torrents24.ru открытый BitTorrent Torrents24.pl открытый BitTorrent CyberTorrent.ru открытый BitTorrent BtList.ru рейтинг BitTorrent трекеров Яндекс.Метрика