Статистика раздачи
Размер:  1,46 GB   |    Зарегистрирован:  3 месяца 6 дней   |    Скачан:  0 раз

Полного источника не было: Никогда

 
   
 
 

lopster ®

Пол:
Не указан
Стаж:
3 месяца 6 дней
Сообщений:
612

Роман ужасов Жанр: комедия
Год выпуска: 2005
Продолжительность: 01:44:35
Режиссёр: Александр Самойленко
В ролях: Леонид Громов, Антон Кукушкин, Игорь Золотовицкий, Людмила Артемьева, Иван Кокорин, Александр Ревенко, Александр Домогаров, Татьяна Лютаева, Иван Агапов, Александр Белый, Евгений Воскресенский, Руслан Куштов, Константин Богданов, Юрий Горин
Описание: Выйдя из тюрьмы, Клим Блинов устраивается на работу охранником к старому приятелю Долбинскому, владельцу клуба (вертепа для бандитов с массажистками), в котором творится что-то неладное: появился невидимка, похищающий туфли и подвешивающий посетителей к потолку...
Доп. информация:

Рип: waarheid
Сэмпл:

Качество видео: DVDRip [Исходник: DVD5]
Формат видео: AVI
Видео: 688x368 (1.87:1), 25 fps, XviD build 73 ~1605 kbps avg, 0.25 bit/pixel
Аудио: 48 kHz, AC3 Dolby Digital, 3/2 (L,C,R,l,r) + LFE ch, ~384 kbps

MediaInfo

Общее
Полное имя : Роман ужасов.2005_DVDRip_by_waarheid.avi
Формат : AVI
Формат/Информация : Audio Video Interleave
Размер файла : 1,46 Гбайт
Продолжительность : 1 ч. 44 м.
Общий поток : 1999 Кбит/сек
Программа кодирования : VirtualDubMod 1.5.10.3 | www.virtualdub-fr.org || (build 2550/release)
Видео
Идентификатор : 0
Формат : MPEG-4 Visual
Профиль формата : Advanced Simple@L5
Параметр BVOP формата : 1
Параметр QPel формата : Нет
Параметр GMC формата : Без точки перехода
Параметр матрицы формата : Выборочная
Идентификатор кодека : XVID
Идентификатор кодека/Подсказка : XviD
Продолжительность : 1 ч. 44 м.
Битрейт : 1605 Кбит/сек
Ширина : 688 пикселей
Высота : 368 пикселей
Соотношение сторон : 1,85:1
Частота кадров : 25,000 кадров/сек
Цветовое пространство : YUV
Субдискретизация насыщенности : 4:2:0
Битовая глубина : 8 бит
Тип развёртки : Прогрессивная
Метод сжатия : С потерями
Бит/(Пиксели*Кадры) : 0.254
Размер потока : 1,17 Гбайт (80%)
Библиотека кодирования : XviD 73
Аудио
Идентификатор : 1
Формат : AC-3
Формат/Информация : Audio Coding 3
Расширение режима : CM (complete main)
Параметр Endianness формата : Big
Идентификатор кодека : 2000
Продолжительность : 1 ч. 44 м.
Вид битрейта : Постоянный
Битрейт : 384 Кбит/сек
Каналы : 6 каналов
Расположение каналов : Front: L C R, Side: L R, LFE
Частота : 48,0 КГц
Частота кадров : 31,250 кадров/сек (1536 spf)
Метод сжатия : С потерями
Размер потока : 287 Мбайт (19%)
Выравнивание : Разделение по промежуткам
Продолжительность промежутка : 40 мс. (1,00 видеокадр)
Время предзагрузки промежутка : 500 мс.

Скриншот c названием фильма

Скриншоты

Сравнение

Сравнение с http://cybertorrent.ru/viewtopic.php?t=583013 (апскейлинг, звук - mp3, 2 ch, 192 kbps против АС3, 6 ch, 384 kbps, отсутствие сидов более 2,5 месяцев).
Сравнение скриншотов привести не представляется возможным - на вышеуказанной раздаче продолжительное время отсутствуют сиды, а также не сохранились скриншоты на хостинге.
[cybertorrent.ru].t165.torrent 
Торрент: Зарегистрирован [ 2018-02-15 13:57 ] · F1DDCB0946592283405E323CAA5CBBED4D327912

Скачать .torrent

Скачать

15 KB

Статус: проверено
Скачан: 0 раз
Размер: 1,46 GB
Профиль [ЛС]
Показать сообщения:    

Текущее время: 22-Май 00:24

Часовой пояс: UTC ± 0



Вы не можете начинать темы
Вы не можете отвечать на сообщения
Вы не можете редактировать свои сообщения
Вы не можете удалять свои сообщения
Вы не можете голосовать в опросах
Вы не можете прикреплять файлы к сообщениям
Вы можете скачивать файлы