Статистика раздачи
Размер:  1,46 GB   |    Зарегистрирован:  3 месяца 7 дней   |    Скачан:  0 раз

Полного источника не было: Никогда

 
   
 
 

lopster ®

Пол:
Не указан
Стаж:
3 месяца 7 дней
Сообщений:
612

Пер-р-р-вокурсница / Первокурсница / Абитуриентка Жанр: комедия, мелодрама
Год выпуска: 2002
Продолжительность: 01:21:23
Режиссёр: Юрий Рогозин
В ролях: Мария Шалаева, Дмитрий Шевченко, Юрий Данильченко, Юрий Рогозин, Галина Стрижак, Светлана Иваненко, Людмила Шестакова, Наталья Романычева, Татьяна Осипова, Александр Селивон, Виктор Савлуков
Описание: Что делать, когда принципиального и неглупого человека - доцента Гирина заставляют поставить зачет по зарубежной литературе нерадивой студентке Колобковой, которая для него - просто бич Божий. "Гамлета" она никогда в жизни не читала и вообще засыпает на 7-й странице любого литературного произведения.
Она для него - ничтожество и папина дочка. Он для нее - зануда, человек с двумя функциями: читать и спрашивать. Однако, со временем, фраза "до новых волнующих встреч", которую Гирин сказал молодой бестии после очередного "неуда", приобретает совсем другой смысл.
Доп. информация:

Рип: waarheid
Сэмпл:

Качество видео: DVDRip [Исходник: DVD5]
Формат видео: AVI
Видео: 704x528 (1.33:1), 25 fps, XviD build 73 ~2172 kbps avg, 0.23 bit/pixel
Аудио: 48 kHz, AC3 Dolby Digital, 3/2 (L,C,R,l,r) + LFE ch, ~384 kbps

MediaInfo

Общее
Полное имя : Первокурсница.2002_DVDRip_by_waarheid.avi
Формат : AVI
Формат/Информация : Audio Video Interleave
Размер файла : 1,46 Гбайт
Продолжительность : 1 ч. 21 м.
Общий поток : 2567 Кбит/сек
Программа кодирования : VirtualDubMod 1.5.10.3 | www.virtualdub-fr.org || (build 2550/release)
Видео
Идентификатор : 0
Формат : MPEG-4 Visual
Профиль формата : Advanced Simple@L5
Параметр BVOP формата : 1
Параметр QPel формата : Нет
Параметр GMC формата : Без точки перехода
Параметр матрицы формата : Выборочная
Идентификатор кодека : XVID
Идентификатор кодека/Подсказка : XviD
Продолжительность : 1 ч. 21 м.
Битрейт : 2173 Кбит/сек
Ширина : 704 пикселя
Высота : 528 пикселей
Соотношение сторон : 4:3
Частота кадров : 25,000 кадров/сек
Цветовое пространство : YUV
Субдискретизация насыщенности : 4:2:0
Битовая глубина : 8 бит
Тип развёртки : Прогрессивная
Метод сжатия : С потерями
Бит/(Пиксели*Кадры) : 0.234
Размер потока : 1,24 Гбайт (85%)
Библиотека кодирования : XviD 73
Аудио
Идентификатор : 1
Формат : AC-3
Формат/Информация : Audio Coding 3
Расширение режима : CM (complete main)
Параметр Endianness формата : Big
Идентификатор кодека : 2000
Продолжительность : 1 ч. 21 м.
Вид битрейта : Постоянный
Битрейт : 384 Кбит/сек
Каналы : 6 каналов
Расположение каналов : Front: L C R, Side: L R, LFE
Частота : 48,0 КГц
Частота кадров : 31,250 кадров/сек (1536 spf)
Метод сжатия : С потерями
Размер потока : 224 Мбайт (15%)
Выравнивание : Разделение по промежуткам
Продолжительность промежутка : 40 мс. (1,00 видеокадр)
Время предзагрузки промежутка : 500 мс.

Скриншот c названием фильма

Скриншоты

Сравнение

Сравнение с http://cybertorrent.ru/viewtopic.php?t=544883 (апскейлинг, перекроп).
http://screenshotcomparison.com/comparison/199435/picture:1
[cybertorrent.ru].t166.torrent 
Торрент: Зарегистрирован [ 2018-02-15 13:57 ] · 0771C66E2C426B03B24B489D0AF0FABCF465D41F

Скачать .torrent

Скачать

15 KB

Статус: проверено
Скачан: 0 раз
Размер: 1,46 GB
Профиль [ЛС]
Показать сообщения:    

Текущее время: 23-Май 07:13

Часовой пояс: UTC ± 0



Вы не можете начинать темы
Вы не можете отвечать на сообщения
Вы не можете редактировать свои сообщения
Вы не можете удалять свои сообщения
Вы не можете голосовать в опросах
Вы не можете прикреплять файлы к сообщениям
Вы можете скачивать файлы