Статистика раздачи
Размер:  1,96 GB   |    Зарегистрирован:  5 месяцев 5 дней   |    Скачан:  0 раз

Полного источника не было: Никогда

 
   
 
 

martin ®

Пол:
Не указан
Стаж:
5 месяцев 6 дней
Сообщений:
47

Аватар: Легенда о Корре-- Год выпуска: 2013
Страна: США
Жанр: мультфильм, фантастика, боевик, комедия, приключения, ...-Продолжительность: 00:23:37-Перевод: Любительский (многоголосый закадровый){Saint Sound}, Оригинал
Субтитры: Английские-Режиссер: Хоаким Дос Сантос / Joaquim Dos Santos, Ки Хьюн Рю / Ki Hyun Ryu
В ролях: Джанет Вэрни (Korra, озвучка), Ди Брэдли Бейкер (Naga, озвучка), Дэвид Фаустино (Mako, озвучка), П.Дж. Бирн (Bolin, озвучка), Дж.К. Симмонс (Tenzin, озвучка), Джефф Беннетт (Radio Broadcaster, озвучка), Сейшелл Гэбриел (Asami Sato, озвучка), Дарси Роуз Бернс (Ikki, озвучка), Стивен Блум (Amon, озвучка), Логан Уэллс (Meelo, озвучка), Минди Стерлинг (Lin Beifong, озвучка), Лэнс Хенриксен (Lieutenant, озвучка)-Описание: Действие сериала разворачивается примерно через 70 лет после победы аватара Аанга над Лордом Огня в последней серии мультсериала «Аватар: Легенда об Аанге». Корра, уже овладевшая магией воды, земли и огня должна обучиться последнему элементу - магии воздуха. В этом ей может помочь только сын Аанга и Катары - Тензин. Корра живёт в «Республиканском городе». Республиканский город - это место, где вместе живут люди всех наций. Героям мультсериала предстоит борьба с преступностью и с готовящимся восстанием против магов.- --Ссылка на предыдущие и альтернативные раздачи
Качество: WEB-DL 1080p
Формат: MKV
Видео кодек: AVC
Видео: 1912x1072 (16:9), 23.976 fps, AVC, ~5323 kbps, 0.108 bits/pixel
Аудио 1: AC3, 48 kHz, 2 channels, 192 kbps - MVO [Saint Sound]
Аудио 2: AAC, 48 kHz, 6 channels, 384 kbps - ENG [Оригинал]

МедиаИнфо

Код:General
Unique ID : 201740793499259274948550486413747245164 (0x97C5DD0FAD63268AB8C799C489A5506C)
Complete name : D:\DownLoads\корра!!!\The Legend Of Korra 1080p\TLOFKS02E01.mkv
Format : Matroska
Format version : Version 4 / Version 2
File size : 1.01 GiB
Duration : 23mn 57s
Overall bit rate : 6 018 Kbps
Encoded date : UTC 2013-09-16 04:33:56
Writing application : mkvmerge v6.3.0 ('You can't stop me!') built on Jun 28 2013 20:09:41
Writing library : libebml v1.3.0 + libmatroska v1.4.0
Video
ID : 1
Format : AVC
Format/Info : Advanced Video Codec
Format profile : High@L4.0
Format settings, CABAC : Yes
Format settings, ReFrames : 4 frames
Codec ID : V_MPEG4/ISO/AVC
Duration : 23mn 57s
Bit rate : 5 323 Kbps
Width : 1 912 pixels
Height : 1 072 pixels
Display aspect ratio : 16:9
Frame rate mode : Constant
Frame rate : 23.976 fps
Color space : YUV
Chroma subsampling : 4:2:0
Bit depth : 8 bits
Scan type : Progressive
Bits/(Pixel*Frame) : 0.108
Stream size : 912 MiB (88%)
Language : English
Default : Yes
Forced : No
Color primaries : BT.709
Transfer characteristics : BT.709
Matrix coefficients : BT.709
Audio #1
ID : 2
Format : AC-3
Format/Info : Audio Coding 3
Mode extension : CM (complete main)
Format settings, Endianness : Big
Codec ID : A_AC3
Duration : 23mn 57s
Bit rate mode : Constant
Bit rate : 192 Kbps
Channel(s) : 2 channels
Channel positions : Front: L R
Sampling rate : 48.0 KHz
Bit depth : 16 bits
Compression mode : Lossy
Stream size : 32.9 MiB (3%)
Language : Russian
Default : Yes
Forced : No
Audio #2
ID : 3
Format : AC-3
Format/Info : Audio Coding 3
Mode extension : CM (complete main)
Format settings, Endianness : Big
Codec ID : A_AC3
Duration : 23mn 57s
Bit rate mode : Constant
Bit rate : 384 Kbps
Channel(s) : 6 channels
Channel positions : Front: L C R, Side: L R, LFE
Sampling rate : 48.0 KHz
Bit depth : 16 bits
Compression mode : Lossy
Stream size : 65.8 MiB (6%)
Language : English
Default : No
Forced : No
Text
ID : 4
Format : UTF-8
Codec ID : S_TEXT/UTF8
Codec ID/Info : UTF-8 Plain Text
Language : English
Default : No
Forced : No

Скриншоты

[cybertorrent.ru].t1664.torrent 
Торрент: Зарегистрирован [ 2018-02-16 08:13 ] · 2DB52D0776E42D3CFFD55080DEAD8845236FB4BB

Скачать .torrent

Скачать

20 KB

Статус: проверено
Скачан: 0 раз
Размер: 1,96 GB
Профиль [ЛС]
Показать сообщения:    

Текущее время: 21-Июл 13:34

Часовой пояс: UTC ± 0



Вы не можете начинать темы
Вы не можете отвечать на сообщения
Вы не можете редактировать свои сообщения
Вы не можете удалять свои сообщения
Вы не можете голосовать в опросах
Вы не можете прикреплять файлы к сообщениям
Вы можете скачивать файлы