Статистика раздачи
Размер:  5,76 GB   |    Зарегистрирован:  7 месяцев 7 дней   |    Скачан:  0 раз

Полного источника не было: Никогда

 
   
 
 

Cyber ®

Пол:
Не указан
Стаж:
7 месяцев 8 дней
Сообщений:
291

Алеша Попович и Тугарин Змей
Страна: Россия
Жанр: Мультфильм, мюзикл, мелодрама, комедия
Продолжительность: 01:15:31
Год выпуска: 2004
Русские субтитры: нет-Режиссёр: Константин Бронзит
Роли озвучивали: Олег Куликович, Лия Медведева, Дмитрий Высоцкий, Анатолий Петров, Наталья Данилова, Сергей Маковецкий, Иван Краско, Татьяна Иванова, Михаил Черняк, Константин Бронзит
Описание: древнем русском городе Ростове родился в поповской семье сын. Назвали его родители Алешей. А когда он вырос и стал богатырем, то совершил такие подвиги, что стал героем русских былин Алешей Поповичем. Только подвиги его начались с конфуза…
Подступила к Ростову тугарская вражеская орда во главе с Тугарином Змеем и потребовала, чтобы жители города выплатили дань. Поповский сын предложил план действий. Народ этот план одобрил и собрал гору золота. Алеша же умудрился собственный план «благополучно» провалить, да с каким треском!
И золото упустил, и полгорода разрушил. После чего поклялся — Тугарина Змея изловить и золото вернуть. Отправился Алеша Попович в путь вместе с дедом Тихоном, который мальчика вырастил и воспитал, а чуть позже компанию им составили говорящий конь Юлий, купленный у цыган, почти 16-летняя красавица Любава, ее бабка и их ослик Моисей.-Все раздачи мультфильма-Доп. материалы:
Интервью с создателями фильма:
- Актёр Анатолий Петров - "голос" деда Тихона
- Режиссёр фильма - Константин Бронзит
- Композитор - Валентин Васенков
- Продюсер - Александр Боярский
Анимационные ролики Константина Бронзита:
- "Божество"
- "Крепкий орешек"-Сэмпл-Качество: DVD9
Формат: DVD-video
Видео: PAL 4:3 (720x576) MPEG-2, 25,000 кадр/сек, 6276 Кбит/сек
Аудио: Russian (Dolby AC3, 6 ch) 448 Кбит/сек
Субтитры: нет

DVDInfo

Title: HITACHI
Size: 5.76 Gb ( 6 043 206 KBytes ) - DVD-9
Enabled regions: 1, 2, 3, 4, 5, 6, 7, 8
VTS_01 :
Play Length: 01:15:31
Video: PAL 4:3 (720x576) VBR
Audio:
Russian (Dolby AC3, 6 ch)
VTS_02 :
Play Length: 00:00:13
Video: PAL 4:3 (720x576) VBR
Audio:
Not specified (Dolby AC3, 2 ch)
VTS_03 :
Play Length: 00:04:52
Video: PAL 4:3 (720x576) VBR
Audio:
Russian (Dolby AC3, 2 ch)
VTS_04 :
Play Length: 00:29:27
Video: PAL 4:3 (720x576) VBR
Audio:
Russian (Dolby AC3, 2 ch)
VTS_05 :
Play Length: 00:06:41
Video: PAL 4:3 (720x576) VBR
Audio:
Russian (Dolby AC3, 2 ch)
VTS_06 :
Play Length: 00:10:31
Video: PAL 4:3 (720x576) VBR
Audio:
Russian (Dolby AC3, 2 ch)
VTS_07 :
Play Length: 00:01:23
Video: PAL 4:3 (720x576) VBR
Audio:
Russian (Dolby AC3, 2 ch)
VTS_08 :
Play Length: 00:04:16
Video: PAL 4:3 (720x576) VBR
Audio:
Russian (Dolby AC3, 2 ch)
Menu Video:
PAL 4:3 (720x576) VBR
Menu Subtitles:
Not specified
Menu English Language Unit :
Root Menu

MediaInfo

Общее
Полное имя : G:\Rutracker.org\Alesha.Popovich.i.Tugarin.Zmey.2004.DVD9\VIDEO_TS\VTS_01_2.VOB
Формат : MPEG-PS
Размер файла : 1024 Мбайт
Продолжительность : 20 м.
Общий поток : 6861 Кбит/сек
Видео
Идентификатор : 224 (0xE0)
Формат : MPEG Video
Версия формата : Version 2
Профиль формата : Main@Main
Параметр BVOP формата : Да
Параметр матрицы формата : По умолчанию
Продолжительность : 20 м.
Вид битрейта : Переменный
Битрейт : 6276 Кбит/сек
Номинальный битрейт : 9800 Кбит/сек
Ширина : 720 пикс.
Высота : 576 пикс.
Соотношение сторон : 4:3
Частота кадров : 25,000 кадр/сек
Стандарт вещания : PAL
Цветовое пространство : YUV
Подвыборка цветности : 4:2:0
Битовая глубина : 8 бит
Тип развёртки : Чересстрочная
Порядок развёртки : Верхнее поле первое
Метод сжатия : С потерями
Бит/(Пиксели*Кадры) : 0.605
Размер потока : 936 Мбайт (91%)
Аудио
Идентификатор : 189 (0xBD)-128 (0x80)
Формат : AC-3
Формат/Информация : Audio Coding 3
Расширение режима : CM (complete main)
Режим смешивания : DVD-Video
Продолжительность : 20 м.
Вид битрейта : Постоянный
Битрейт : 448 Кбит/сек
Канал(ы) : 6 канала(ов)
Расположение каналов : Front: L C R, Side: L R, LFE
Частота : 48,0 КГц
Битовая глубина : 16 бит
Метод сжатия : С потерями
Задержка видео : -800 мс.
Размер потока : 66,9 Мбайт (7%)
Меню

Скриншоты меню

Скриншоты мультфильма


Скриншоты доп. материалов

[cybertorrent.ru].t1666.torrent 
Торрент: Зарегистрирован [ 2018-02-16 08:13 ] · D5199B2B781C2E2CA6BCA9B59CE1BA3447FA4868

Скачать .torrent

Скачать

31 KB

Статус: проверено
Скачан: 0 раз
Размер: 5,76 GB
Профиль [ЛС]
Показать сообщения:    

Текущее время: 23-Сен 12:59

Часовой пояс: UTC ± 0



Вы не можете начинать темы
Вы не можете отвечать на сообщения
Вы не можете редактировать свои сообщения
Вы не можете удалять свои сообщения
Вы не можете голосовать в опросах
Вы не можете прикреплять файлы к сообщениям
Вы можете скачивать файлы
Torrents24.ru открытый BitTorrent Torrents24.pl открытый BitTorrent CyberTorrent.ru открытый BitTorrent BtList.ru рейтинг BitTorrent трекеров Яндекс.Метрика