Статистика раздачи
Размер:  1,65 GB   |    Зарегистрирован:  5 месяцев 7 дней   |    Скачан:  0 раз

Полного источника не было: Никогда

 
   
 
 

irkutsk ®

Пол:
Не указан
Стаж:
5 месяцев 8 дней
Сообщений:
620

Южный Парк / South Park
Страна: США
Жанр: комедия, мультсериал
Продолжительность: ~ 00:22:00
Год выпуска: 2013
Перевод: Одноголосый закадровый | L0cDoG
Русские субтитры: нет
Режиссёр: Мэтт Стоун, Трей Паркер
Описание: Южный Парк / South Park — американский мультсериал, созданный Мэттом Стоуном и Треем Паркером. Иногда название переводится также как «Саут-Парк» или «Саус-Парк». Выпускается кабельным телеканалом Comedy Central с 1997 года. Основу сюжета составляют приключения четырёх мальчиков и их друзей, живущих в маленьком городке Саут-Парк, штат Колорадо. Сериал высмеивает недостатки американской культуры и текущие мировые события, а также подвергает критике множество глубоких убеждений и табу посредством пародии и чёрного юмора. «Южный Парк» выходит поздно вечером и позиционируется как мультфильм для взрослых.
Семпл: http://multi-up.com/907165
Качество: HDTVRip
Формат: AVI
Видео: MPEG-4; ~ 704 Kbps; 720x400; 23.976 fps
Аудио: MPEG; 128 Kbps CBR; 2 channels; 48 KHz
Аудио 2: MPEG; 128 Kbps CBR; 2 channels; 48 KHz
Субтитры: отсутствуют

Подробные технические данные

General
Complete name : C:\South_Park_Season_17_by_PancakEater\05 – Taming Strange.avi
Format : AVI
Format/Info : Audio Video Interleave
File size : 153 MiB
Duration : 22mn 1s
Overall bit rate : 974 Kbps
Writing application : VirtualDubMod 1.5.10.2 (build 2540/release)
Writing library : VirtualDubMod build 2540/release
Video
ID : 0
Format : MPEG-4 Visual
Format profile : Advanced Simple@L5
Format settings, BVOP : 2
Format settings, QPel : No
Format settings, GMC : No warppoints
Format settings, Matrix : Default (H.263)
Codec ID : XVID
Codec ID/Hint : XviD
Duration : 22mn 1s
Bit rate : 704 Kbps
Width : 720 pixels
Height : 400 pixels
Display aspect ratio : 16:9
Frame rate : 23.976 fps
Color space : YUV
Chroma subsampling : 4:2:0
Bit depth : 8 bits
Scan type : Progressive
Compression mode : Lossy
Bits/(Pixel*Frame) : 0.102
Stream size : 111 MiB (72%)
Writing library : XviD 1.2.1 (UTC 2008-12-04)
Audio #1
ID : 1
Format : MPEG Audio
Format version : Version 1
Format profile : Layer 3
Mode : Joint stereo
Mode extension : MS Stereo
Codec ID : 55
Codec ID/Hint : MP3
Duration : 22mn 1s
Bit rate mode : Constant
Bit rate : 128 Kbps
Channel(s) : 2 channels
Sampling rate : 48.0 KHz
Compression mode : Lossy
Stream size : 20.2 MiB (13%)
Alignment : Aligned on interleaves
Interleave, duration : 42 ms (1.00 video frame)
Interleave, preload duration : 504 ms
Audio #2
ID : 2
Format : MPEG Audio
Format version : Version 1
Format profile : Layer 3
Mode : Joint stereo
Mode extension : MS Stereo
Codec ID : 55
Codec ID/Hint : MP3
Duration : 22mn 1s
Bit rate mode : Constant
Bit rate : 128 Kbps
Channel(s) : 2 channels
Sampling rate : 48.0 KHz
Compression mode : Lossy
Stream size : 20.2 MiB (13%)
Alignment : Aligned on interleaves
Interleave, duration : 42 ms (1.00 video frame)
Interleave, preload duration : 504 ms

Скриншоты

[cybertorrent.ru].t1677.torrent 
Торрент: Зарегистрирован [ 2018-02-16 08:13 ] · 61DE1DDDE0732153A9319271F63D47264078D2DB

Скачать .torrent

Скачать

18 KB

Статус: проверено
Скачан: 0 раз
Размер: 1,65 GB
Профиль [ЛС]
Показать сообщения:    

Текущее время: 23-Июл 13:57

Часовой пояс: UTC ± 0



Вы не можете начинать темы
Вы не можете отвечать на сообщения
Вы не можете редактировать свои сообщения
Вы не можете удалять свои сообщения
Вы не можете голосовать в опросах
Вы не можете прикреплять файлы к сообщениям
Вы можете скачивать файлы