Статистика раздачи
Размер:  2,17 GB   |    Зарегистрирован:  6 месяцев 17 дней   |    Скачан:  0 раз

Полного источника не было: Никогда

   
 

Гость ®

Пол:
Не указан

Одинокий рейнджер / The Lone Ranger
Страна: США
Жанр: вестерн, приключения, комедия
Год выпуска: 2013
Продолжительность: 02:29:33
Перевод: Авторский (одноголосый закадровый) Леонид Володарский
Перевод 2: Авторский (одноголосый закадровый) Юрий Сербин
Субтитры: нет
Режиссер: Гор Вербински / Gore Verbinski
В ролях: Джонни Депп, Хелена Картер, Арми Хаммер, Уильям Фихтнер, Том Уилкинсон, Бэрри Пеппер, Джеймс Дэйл, Рут Уилсон, Мэйсон Кук
Описание: Возможно, Джон Рид прожил бы свою жизнь, как и положено юристу – среди бумаг в папках, под звуки молотка из зала заседаний. Наверное, у него была бы добрая, милая жена и трое послушных детей, а по выходным они ездили бы на побережье и сидели на пляже под зонтиками… Все это могло бы быть именно так, если бы по Дикому Западу не пустили железную дорогу, а в одном из вагонов поезда, в котором ехал герой, не оказался бы преступник-рецидивист. После того дня он, похоронив брата, надел на свое лицо маску, чтобы больше никогда ее не снимать. А еще Джон сменил имя – теперь его зовут Одинокий Рейнджер....

Сэмпл: http://multi-up.com/1228205
Качество видео: BDRip (Исходник BDRemux 1080p)
Формат видео: AVI
Видео: XviD 73, 720x304, (2,35:1), 23,976 fps, 1616 Кбит/с, 8 бит, 0.30 bit/pixel
Аудио: Русский (АС3, 2 ch (Front: L R), 48,0 KHz, 224 Kbps) Леонид Володарский
Аудио 2: Русский (АС3, 2 ch (Front: L R), 48,0 KHz, 224 Kbps) Юрий Сербин

MediaInfo

Общее
Полное имя : D:\Фильмы на трекер\Одинокий рейнджер (вестерн, приключения, комедия, 2013 глд).avi
Формат : AVI
Формат/Информация : Audio Video Interleave
Профиль формата : OpenDML
Размер файла : 2,17 Гбайт
Продолжительность : 2 ч. 29 м.
Общий поток : 2082 Кбит/сек
Программа кодирования : VirtualDubMod 1.5.10.2 (build 2540/release)
Библиотека кодирования : VirtualDubMod build 2540/release
Видео
Идентификатор : 0
Формат : MPEG-4 Visual
Профиль формата : Advanced Simple@L5
Параметр BVOP формата : 2
Параметр QPel формата : Нет
Параметр GMC формата : Без точки перехода
Параметр матрицы формата : Выборочная
Идентификатор кодека : XVID
Идентификатор кодека/Подсказка : XviD
Продолжительность : 2 ч. 29 м.
Битрейт : 1616 Кбит/сек
Ширина : 720 пикселей
Высота : 304 пикселя
Соотношение сторон : 2,35:1
Частота кадров : 23,976 (23976/1000) кадра/сек
Цветовое пространство : YUV
Субдискретизация насыщенности : 4:2:0
Битовая глубина : 8 бит
Тип развёртки : Прогрессивная
Метод сжатия : С потерями
Бит/(Пиксели*Кадры) : 0.308
Размер потока : 1,69 Гбайт (78%)
Библиотека кодирования : XviD 73
Аудио #1
Идентификатор : 1
Формат : AC-3
Формат/Информация : Audio Coding 3
Расширение режима : CM (complete main)
Параметр Endianness формата : Big
Идентификатор кодека : 2000
Продолжительность : 2 ч. 29 м.
Вид битрейта : Постоянный
Битрейт : 224 Кбит/сек
Каналы : 6 каналов
Расположение каналов : Front: L C R, Side: L R, LFE
Частота : 48,0 КГц
Частота кадров : 31,250 кадров/сек (1536 spf)
Метод сжатия : С потерями
Размер потока : 240 Мбайт (11%)
Выравнивание : Разделение по промежуткам
Продолжительность промежутка : 42 мс. (1,00 видеокадр)
Время предзагрузки промежутка : 500 мс.
Аудио #2
Идентификатор : 2
Формат : AC-3
Формат/Информация : Audio Coding 3
Расширение режима : CM (complete main)
Параметр Endianness формата : Big
Идентификатор кодека : 2000
Продолжительность : 2 ч. 29 м.
Вид битрейта : Постоянный
Битрейт : 224 Кбит/сек
Каналы : 2 канала
Расположение каналов : Front: L R
Частота : 48,0 КГц
Частота кадров : 31,250 кадров/сек (1536 spf)
Метод сжатия : С потерями
Размер потока : 240 Мбайт (11%)
Выравнивание : Разделение по промежуткам
Продолжительность промежутка : 42 мс. (1,00 видеокадр)
Время предзагрузки промежутка : 500 мс.

Скриншот c названием фильма

Скриншоты

[cybertorrent.ru].t1677.torrent 
Торрент: Зарегистрирован [ 2019-04-01 16:16 ] · 9881FC16FA4A6E1D3C9C6AC884B2956DDEBC47D1

Скачать .torrent

Скачать

11 KB

Статус: проверено
Скачан: 0 раз
Размер: 2,17 GB
terms.php
Показать сообщения:    

Текущее время: 19-Окт 05:19

Часовой пояс: UTC ± 0



Вы не можете начинать темы
Вы не можете отвечать на сообщения
Вы не можете редактировать свои сообщения
Вы не можете удалять свои сообщения
Вы не можете голосовать в опросах
Вы не можете прикреплять файлы к сообщениям
Вы можете скачивать файлы