Статистика раздачи
Размер:  1,46 GB   |    Зарегистрирован:  3 месяца 11 дней   |    Скачан:  0 раз

Полного источника не было: Никогда

 
   
 
 

lopster ®

Пол:
Не указан
Стаж:
3 месяца 11 дней
Сообщений:
612

Дачный романс / (2 серии из 2)
Жанр: Мелодрама, комедия
Год выпуска: 2014
Продолжительность: 02:02:35
Режиссёр: Вадим Дубровицкий
В ролях: Константин Юшкевич, Карина Разумовская, Анна Дубровская, Владимир Капустин
Описание: Борис отправляется к бывшей жене на дачу, чтобы забрать свои вещи. Ситуация осложнена тем, что на даче помимо бывшей жены проживает и ее новый муж. Чтобы не чувствовать себя неловко, Борис по дороге за город знакомится с симпатичной девушкой и предлагает ей сыграть роль его любимой женщины. Жена пребывает в шоке от такой "наглости" бывшего мужа, ее обуревает ревность. Оказывается, бывшие супруги еще что-то чувствуют по отношению друг к другу...
Доп. информация:
Автор релиза -
Источник для рипа - HDTV 1080i - моя запись с канала Первый HD от 05.02.2017
В оригинальном потоке звук псевдо-объёмный AC3 5.1 384 kbps - четыре канала из шести оказались пустыми, поэтому аудио-дорожка была перекодирована в AC3 2.0 192 kbps с использованием eac3to и Sony Vegas
Сэмпл: https://yadi.sk/i/w5Qk71tJ3Cwki8
Качество видео: HDTVRip
Формат видео: AVI
Видео: XviD, 688x384 (16:9), 25.000 fps, 1501 kbps, 0.227 bit/pixel
Аудио: Русский AC3, 48000 Гц, 2ch, 192 kbps

MediaInfo

Общее
Полное имя : E:\Дачный.романс.2014.HDTVRip-ylnian.avi
Формат : AVI
Формат/Информация : Audio Video Interleave
Размер файла : 1,46 Гбайт
Продолжительность : 2 ч. 2 м.
Общий поток : 1702 Кбит/сек
Название фильма : Дачный романс - 2014 - HDTVRip - ylnian
Программа кодирования : VirtualDubMod 1.5.10.2 (build 2540/release)
Библиотека кодирования : VirtualDubMod build 2540/release
Видео
Идентификатор : 0
Формат : MPEG-4 Visual
Профиль формата : Advanced Simple@L5
Параметр BVOP формата : 1
Параметр QPel формата : Нет
Параметр GMC формата : Без точки перехода
Параметр матрицы формата : Default (MPEG)
Идентификатор кодека : XVID
Идентификатор кодека/Подсказка : XviD
Продолжительность : 2 ч. 2 м.
Битрейт : 1501 Кбит/сек
Ширина : 688 пикселей
Высота : 384 пикселя
Соотношение сторон : 16:9
Частота кадров : 25,000 кадров/сек
Цветовое пространство : YUV
Субдискретизация насыщенности : 4:2:0
Битовая глубина : 8 бит
Тип развёртки : Прогрессивная
Метод сжатия : С потерями
Бит/(Пиксели*Кадры) : 0.227
Размер потока : 1,29 Гбайт (88%)
Библиотека кодирования : XviD 67
Аудио
Идентификатор : 1
Формат : AC-3
Формат/Информация : Audio Coding 3
Расширение режима : CM (complete main)
Параметр Endianness формата : Big
Идентификатор кодека : 2000
Продолжительность : 2 ч. 2 м.
Вид битрейта : Постоянный
Битрейт : 192 Кбит/сек
Каналы : 2 канала
Расположение каналов : Front: L R
Частота : 48,0 КГц
Частота кадров : 31,250 кадров/сек (1536 spf)
Метод сжатия : С потерями
Размер потока : 168 Мбайт (11%)
Выравнивание : Разделение по промежуткам
Продолжительность промежутка : 40 мс. (1,00 видеокадр)
Время предзагрузки промежутка : 500 мс.
Заголовок : RUS

Скриншот c названием фильма

[cybertorrent.ru].t168.torrent 
Торрент: Зарегистрирован [ 2018-02-15 13:57 ] · 3F7C1349E3C872A159D611B08D39CE9C6D415849

Скачать .torrent

Скачать

15 KB

Статус: проверено
Скачан: 0 раз
Размер: 1,46 GB
Профиль [ЛС]
Показать сообщения:    

Текущее время: 26-Май 15:25

Часовой пояс: UTC ± 0



Вы не можете начинать темы
Вы не можете отвечать на сообщения
Вы не можете редактировать свои сообщения
Вы не можете удалять свои сообщения
Вы не можете голосовать в опросах
Вы не можете прикреплять файлы к сообщениям
Вы можете скачивать файлы