Статистика раздачи
Размер:  2,79 GB   |    Зарегистрирован:  8 месяцев 4 дня   |    Скачан:  0 раз
Сидов:  3  [  0 KB/s  ]  
 
     
 
 

serzh ®

Пол:
Не указан
Стаж:
8 месяцев 25 дней
Сообщений:
384

Вздорный человек / Мошенник по кличке "Флим-Флэм" / The Flim-Flam Man
Страна: США
Жанр: комедия, приключения
Год выпуска: 1967
Продолжительность: 01:39:33
Перевод: Одноголосый закадровый BadBajo
Субтитры: нет
Оригинальная аудиодорожка: английский
Режиссер: Ирвин Кершнер / Irvin Kershner
В ролях: Джордж К. Скотт, Сью Лайон, Гарри Морган, Джек Альбертсон, Элис Гостли, Альберт Сэлми, Слим Пикенс, Майкл Сарразин, Стразер Мартин, Джордж Митчелл
Описание: Молодой дезертир по имени Керли, волей случая связался с известным мошенником Мордекаем Джонсом. Позже Керли узнает, что перед ним тот самый известный мошенник по кличке "Флим-флэм". Парочка аферистов начинает орудовать в мелких городках, пока Керли не влюбляется в девушку по имени Бонни Лии, которая пытается вернуть Керли на путь истинный.
Сэмпл: http://sendfile.su/1485811
Качество видео: DVDRip-AVC
Формат видео: MKV
Видео: 1024x440 (2.35:1), 25.000 fps, AVC/H.264 ~3441 kbps avg, 0.305 bit/pixel
Аудио 1: Русский / AC3, 2 ch, 384 Kbps (BadBajo)
Аудио 2: Английский / AC3, 2 ch, 192 Kbps

MediaInfo

General
Unique ID : 320615135450090492248708941039898130084 (0xF1343A9FA8D1CAAE2D091698D032F6A4)
Complete name : \The Flim-Flam Man_AC3 2.0_rus_BadBajo.mkv
Format : Matroska
Format version : Version 4
File size : 2.79 GiB
Duration : 1 h 39 min
Overall bit rate : 4 019 kb/s
Movie name : The Flim-Flam Man_AC3 2.0_rus_BadBajo
Encoded date : UTC 2019-04-01 06:34:44
Writing application : mkvmerge v20.0.0 ('I Am The Sun') 64-bit
Writing library : libebml v1.3.5 + libmatroska v1.4.8
Cover : Yes
Attachments : cover.jpg
Video
ID : 1
Format : AVC
Format/Info : Advanced Video Codec
Format profile : High@L4
Format settings : CABAC / 8 Ref Frames
Format settings, CABAC : Yes
Format settings, ReFrames : 8 frames
Codec ID : V_MPEG4/ISO/AVC
Duration : 1 h 39 min
Bit rate : 3 441 kb/s
Width : 1 024 pixels
Height : 440 pixels
Display aspect ratio : 2.35:1
Frame rate mode : Constant
Frame rate : 25.000 FPS
Color space : YUV
Chroma subsampling : 4:2:0
Bit depth : 8 bits
Scan type : Progressive
Bits/(Pixel*Frame) : 0.305
Stream size : 2.39 GiB (86%)
Title : The Flim-Flam Man
Writing library : x264 core 133 r2334 a3ac64b
Encoding settings : cabac=1 / ref=8 / deblock=1:0:0 / analyse=0x3:0x133 / me=umh / subme=7 / psy=1 / psy_rd=1.00:0.00 / mixed_ref=1 / me_range=16 / chroma_me=1 / trellis=2 / 8x8dct=1 / cqm=0 / deadzone=21,11 / fast_pskip=1 / chroma_qp_offset=-2 / threads=12 / lookahead_threads=3 / sliced_threads=0 / nr=0 / decimate=1 / interlaced=0 / bluray_compat=0 / constrained_intra=0 / bframes=5 / b_pyramid=2 / b_adapt=2 / b_bias=0 / direct=3 / weightb=1 / open_gop=0 / weightp=2 / keyint=250 / keyint_min=25 / scenecut=40 / intra_refresh=0 / rc_lookahead=40 / rc=crf / mbtree=1 / crf=16.0 / qcomp=0.60 / qpmin=0 / qpmax=69 / qpstep=4 / ip_ratio=1.40 / aq=1:1.00
Language : English
Default : Yes
Forced : No
Audio #1
ID : 2
Format : AC-3
Format/Info : Audio Coding 3
Commercial name : Dolby Digital
Codec ID : A_AC3
Duration : 1 h 39 min
Bit rate mode : Constant
Bit rate : 384 kb/s
Channel(s) : 2 channels
Channel layout : L R
Sampling rate : 48.0 kHz
Frame rate : 31.250 FPS (1536 SPF)
Bit depth : 16 bits
Compression mode : Lossy
Stream size : 273 MiB (10%)
Title : The Flim-Flam Man_AC3 2.0_rus_BadBajo
Language : Russian
Service kind : Complete Main
Default : Yes
Forced : Yes
Audio #2
ID : 3
Format : AC-3
Format/Info : Audio Coding 3
Commercial name : Dolby Digital
Codec ID : A_AC3
Duration : 1 h 39 min
Bit rate mode : Constant
Bit rate : 192 kb/s
Channel(s) : 2 channels
Channel layout : L R
Sampling rate : 48.0 kHz
Frame rate : 31.250 FPS (1536 SPF)
Bit depth : 16 bits
Compression mode : Lossy
Stream size : 137 MiB (5%)
Title : The Flim-Flam Man_AC3 2.0_eng
Language : English
Service kind : Complete Main
Default : No
Forced : No
Menu
00:00:00.000 : :Intro and Titles
00:03:26.000 : :Chapter 01
00:05:00.000 : :Chapter 02
00:10:00.000 : :Chapter 03
00:15:00.000 : :Chapter 04
00:20:00.000 : :Chapter 05
00:25:00.000 : :Chapter 06
00:30:00.000 : :Chapter 07
00:35:00.000 : :Chapter 08
00:40:00.000 : :Chapter 09
00:45:00.000 : :Chapter 10
00:50:00.000 : :Chapter 11
00:55:00.000 : :Chapter 12
01:00:00.000 : :Chapter 13
01:05:00.000 : :Chapter 14
01:10:00.000 : :Chapter 15
01:15:00.000 : :Chapter 16
01:20:00.000 : :Chapter 17
01:25:00.000 : :Chapter 18
01:30:00.000 : :Chapter 19
01:35:00.000 : :Chapter 20
01:40:00.000 : :End Titles
01:45:00.000 : :End of Film

Скриншот c названием фильма

Скриншоты

[cybertorrent.ru].t1683.torrent 
Торрент: Зарегистрирован [ 2019-04-02 16:38 ] · 219C0F8A992E4AB2A6BCCD5BC71448D7E4EAD265

Скачать .torrent

Скачать

14 KB

Статус: проверено
Скачан: 0 раз
Размер: 2,79 GB
terms.php
Профиль [ЛС]
Показать сообщения:    

Текущее время: 07-Дек 11:13

Часовой пояс: UTC ± 0



Вы не можете начинать темы
Вы не можете отвечать на сообщения
Вы не можете редактировать свои сообщения
Вы не можете удалять свои сообщения
Вы не можете голосовать в опросах
Вы не можете прикреплять файлы к сообщениям
Вы можете скачивать файлы