Статистика раздачи
Размер:  6,69 GB   |    Зарегистрирован:  7 месяцев 8 дней   |    Скачан:  0 раз

Полного источника не было: Никогда

 
   
 
 

DR_KTO ®

Пол:
Не указан
Стаж:
7 месяцев 9 дней
Сообщений:
105

Симпсоны / The Simpsons- -Страна: США
Жанр: Комедия
Продолжительность: ~22мин
Год выпуска: 2013
Перевод: (одноголосый закадровый)
-Режиссёр: Мэтт Гроунинг / Matt Groening
Роли озвучивали: Дэн Кастелланета, Джули Кавнер, Нэнси Картрайт, Ярдли Смит, Гарри Ширер, Хэнк Азария, Памела Хейден, Тресс МакНилл, Карл Видерготт, Мэгги Росвэлл-Описание: Симпсоны живут в вымышленном городе Спрингфилд, со своим обществом и историей. Гомер - отец семейства, который дает плохие советы и работает инспектором безопасности на атомной электростанции; Мардж - любящая мать и жена, старается сохранить спокойствие в семье; Барт - 10 летний хулиган; Лиза - философский 8-летний ребенок; и Мэгги - младенец, который общается посредством соски.-Качество: HDTVRip
Формат: AVI
Видео: XviD / 720 x 400 / 1 731 Kbps / 16:9 / 23,976 кадра/сек
Аудио: MP3 / 192 Кбит/сек / 48 КГц / 2 канала

Субтитры: Отсутствуют
- -Ссылка на предыдущие и альтернативные раздачи
Сэмпл- -

Список серий:


1 Homerland
2 Treehouse of Horror XXIV
3 Four Regrettings And A Funeral
4 YOLO
5 Labor Pains
6 The Kid is All Right
7 Yellow Subterfuge
8 White Christmas Blues
9 Steal This Episode
10 Married to the Blob
11 Specs and the City
12 Diggs
13 The Man Who Grew Too Much
14 The Winter of His Content
15 The War of Art
16 You Don't Have to Live Like a Referee
17 Luca$
18 Days of Future Future
19 What to Expect When Bart's Expecting
20 Brick Like Me
21 Pay Pal
22 The Yellow Badge of Cowardge

Media Info

Новая папка\The simpsons 25 HDTVRip 400\The Simpsons s25e01 ketchuptv 400p.avi
Format : AVI
Format/Info : Audio Video Interleave
File size : 293 MiB
Duration : 21mn 13s
Overall bit rate : 1 933 Kbps
Writing application : VirtualDubMod 1.5.10.2 (build 2540/release)
Writing library : VirtualDubMod build 2540/release
Video
ID : 0
Format : MPEG-4 Visual
Format profile : Simple@L3
Format settings, BVOP : No
Format settings, QPel : No
Format settings, GMC : No warppoints
Format settings, Matrix : Default (H.263)
Codec ID : XVID
Codec ID/Hint : XviD
Duration : 21mn 13s
Bit rate : 1 731 Kbps
Width : 720 pixels
Height : 400 pixels
Display aspect ratio : 16:9
Frame rate : 23.976 fps
Color space : YUV
Chroma subsampling : 4:2:0
Bit depth : 8 bits
Scan type : Progressive
Compression mode : Lossy
Bits/(Pixel*Frame) : 0.251
Stream size : 263 MiB (90%)
Writing library : XviD 63
Audio
ID : 1
Format : MPEG Audio
Format version : Version 1
Format profile : Layer 3
Mode : Joint stereo
Codec ID : 55
Codec ID/Hint : MP3
Duration : 21mn 13s
Bit rate mode : Constant
Bit rate : 192 Kbps
Channel(s) : 2 channels
Sampling rate : 48.0 KHz
Compression mode : Lossy
Stream size : 29.1 MiB (10%)
Alignment : Split accross interleaves
Interleave, duration : 42 ms (1.00 video frame)
Interleave, preload duration : 500 ms
Writing library : LAME3.97

Внимание! Раздача ведётся путём добавления новых серий

Внимание! Раздача ведётся путём добавления новых серий; при каждом добавлении создётся новый торрент. Чтобы начать докачку новой серии, пользователям необходимо сделать следующее:
(1) остановить скачивание,
(2) удалить старый торрент-файл у себя из клиента (старые серии удалять не надо),
(3) скачать новый торрент-файл из раздачи и запустить его у себя в клиенте вместо старого, при этом указать клиенту путь в старую папку куда и должно происходить скачивание новых серий.
Ваш клиент при этом должен произвести хеширование (проверку) старой папки (если не производит сам - помогите ему сделать это), и будет докачивать только те серии которых у вас ещё нет. Старые серии при этом не удаляются, а продолжают раздаваться!
Eсли вы уже посмотрели и удалили старые серии, то предотвратить повторную закачку старых серий можно, сняв галочки в соответсвующих местах при запуске нового торрента. По возможности, желательно не удалять старые серии как можно дольше чтобы релизёр не столько продолжал раздавать старые серии, а смог сконцентрироваться на новых.
-Моя безмерная благодарность vetataracanova за помощь в оформлении раздачи -
[cybertorrent.ru].t1684.torrent 
Торрент: Зарегистрирован [ 2018-02-16 08:13 ] · B9CC242C64A447413AAEA8F2EC29E6CC93A8EAAF

Скачать .torrent

Скачать

19 KB

Статус: проверено
Скачан: 0 раз
Размер: 6,69 GB
Профиль [ЛС]
Показать сообщения:    

Текущее время: 24-Сен 17:00

Часовой пояс: UTC ± 0



Вы не можете начинать темы
Вы не можете отвечать на сообщения
Вы не можете редактировать свои сообщения
Вы не можете удалять свои сообщения
Вы не можете голосовать в опросах
Вы не можете прикреплять файлы к сообщениям
Вы можете скачивать файлы
Torrents24.ru открытый BitTorrent Torrents24.pl открытый BitTorrent CyberTorrent.ru открытый BitTorrent BtList.ru рейтинг BitTorrent трекеров Яндекс.Метрика