Статистика раздачи
Размер:  6,18 GB   |    Зарегистрирован:  6 месяцев 14 дней   |    Скачан:  0 раз

Полного источника не было: Никогда

   
 

Гость ®

Пол:
Не указан

Вокально–криминальный ансамбль
Год выпуска: 2019
Производство: IKa film по заказу телеканала НТВ
Жанр: детектив, драма
Продолжительность: ~00:48:00 серия
Субтитры: нет
Режиссёр: Степан Коршунов
В ролях: Никита Волков, Иван Добронравов, Евгений Харитонов, Артём Волобуев, Любовь Аксёнова, Екатерина Кузнецова, Анатолий Белый, Игорь Черневич, Петар Зекавица, Дмитрий Поднозов, Николай Козак, Дмитрий Муляр, Екатерина Кабак, Никита Люшненко, Евгения Бурдихина, Анатолий Голуб, Павел Южаков-Харланчук, Михаил Есьман, Андрей Душечкин, Святослав Астрамович, Максим Кречетов
Описание: Начало 70-х, СССР. Страну захлестнула волна организованной преступности, связанная с вывозом исторических ценностей за рубеж. Явление по тем временам новое, и методы поимки нарушителей, которые не гнушались жестокими убийствам, должны быть нестандартными. В этот же период в разных уголках Союза появляются многочисленные вокально-инструментальные ансамбли. Майор Щукин, которому досталось едва ли не самое запутанное дело, придумывает необычный способ поимки главного подозреваемого — популярного певца по прозвищу Артист. Чтобы проникнуть в, казалось бы, непроницаемую криминальную сеть, Щукин предлагает молодому и перспективному лейтенанту Славе Жукову собрать свою музыкальную группу и внедриться в окружение Артиста. Так появляется новый ВИА, где Славка Жуков солирует, Паштет играет на ударных, Гарик — на клавишных, а Петя — на бас-гитаре. Благодаря своей смекалке Слава быстро попадает в доверие к Артисту, но это лишь первый шаг к разгадке тайны преступного синдиката.

Реклама: Нет.
Кинопоиск
Все раздачи сериала
Sample
Качество: WEBRip 1080p - Nikolspup (ExKinoRay)
Формат: MKV
Видео кодек: H.264
Аудио кодек: AC3
Видео: MPEG4 AVC Video, H264, 16:9, 1920x1080, 25 fps, ~6000 kbps, 0.116 bit/pixel
Аудио: AC3 Dolby Digital, 48.0 kHz, 2/0 (L,R) ch, 192 kbps

Внимание! Раздача ведётся путём добавления новых серий

Раздача ведётся путём добавления новых серий, при каждом добавлении создаётся новый торрент. Чтобы начать докачку новой серии, пользователям необходимо сделать следующее:
- Остановить скачивание.
- Удалить старый торрент у себя из клиента (старые серии удалять не надо).
- Скачать новый торрент и запустить его у себя в клиенте вместо старого, при этом указать клиенту путь в старую папку куда и должно происходить скачивание новых серий.
Ваш клиент при этом должен произвести хеширование (проверку) старой папки (если не производит сам - помогите ему сделать это), и будет докачивать только те серии которых у вас ещё нет. Старые серии при этом не удаляются, а продолжают раздаваться!
Если вы уже удалили старые серии, то предотвратить повторную закачку старых серий можно, отжав галочку в соответствующих местах при запуске нового торрента. По возможности, желательно не удалять старые серии как можно дольше, чтобы релизер не столько продолжал раздавать старые серии, а смог сконцентрироваться на новых.

MI

General
Unique ID : 193092132444672733509412253673412856318 (0x914431264302BDAAB23D1A24631389FE)
Complete name : D:\Vokalno.Kriminalnyi.ansambl.2018.WEB-DL.(1080p).ExKinoRay\Vokalno.Kriminalnyi.ansambl.(01.seriya).2018.WEB-DL.(1080p).ExKinoRay.mkv
Format : Matroska
Format version : Version 4 / Version 2
File size : 1.98 GiB
Duration : 46 min 29 s
Overall bit rate mode : Constant
Overall bit rate : 6 106 kb/s
Encoded date : UTC 2019-04-01 18:02:47
Writing application : mkvmerge v7.8.0 ('River Man') 32bit built on Mar 27 2015 16:18:02
Writing library : libebml v1.3.1 + libmatroska v1.4.2
Video
ID : 1
Format : AVC
Format/Info : Advanced Video Codec
Format profile : High@L4.1
Format settings : 2 Ref Frames
Format settings, CABAC : No
Format settings, ReFrames : 2 frames
Codec ID : V_MPEG4/ISO/AVC
Duration : 46 min 29 s
Bit rate mode : Constant
Bit rate : 6 000 kb/s
Width : 1 920 pixels
Height : 1 080 pixels
Display aspect ratio : 16:9
Frame rate mode : Constant
Frame rate : 25.000 FPS
Standard : PAL
Color space : YUV
Chroma subsampling : 4:2:0
Bit depth : 8 bits
Scan type : Progressive
Bits/(Pixel*Frame) : 0.116
Stream size : 1.92 GiB (97%)
Default : Yes
Forced : No
Color range : Limited
Color primaries : BT.709
Transfer characteristics : BT.709
Matrix coefficients : BT.709
Audio
ID : 2
Format : AC-3
Format/Info : Audio Coding 3
Codec ID : A_AC3
Duration : 46 min 29 s
Bit rate mode : Constant
Bit rate : 192 kb/s
Channel(s) : 2 channels
Channel positions : Front: L R
Sampling rate : 48.0 kHz
Frame rate : 31.250 FPS (1536 SPF)
Bit depth : 16 bits
Compression mode : Lossy
Stream size : 63.8 MiB (3%)
Language : Russian
Service kind : Complete Main
Default : Yes
Forced : No

Скриншоты


[cybertorrent.ru].t1690.torrent 
Торрент: Зарегистрирован [ 2019-04-02 16:38 ] · A95781DD37EA13689BDE6605B44ADCC6FE2133DC

Скачать .torrent

Скачать

32 KB

Статус: проверено
Скачан: 0 раз
Размер: 6,18 GB
terms.php
Показать сообщения:    

Текущее время: 17-Окт 01:12

Часовой пояс: UTC ± 0



Вы не можете начинать темы
Вы не можете отвечать на сообщения
Вы не можете редактировать свои сообщения
Вы не можете удалять свои сообщения
Вы не можете голосовать в опросах
Вы не можете прикреплять файлы к сообщениям
Вы можете скачивать файлы