Статистика раздачи
Размер:  20,1 GB   |    Зарегистрирован:  7 месяцев 5 дней   |    Скачан:  0 раз
Сидов:  13  [  0 KB/s  ]   Личеров:  7  [  0 KB/s  ]  
 
   
 
 

0H0 ®

Пол:
Не указан
Стаж:
7 месяцев 6 дней
Сообщений:
156

Чип и Дейл спешат на помощь / Chip and Dale rescue rangers
Доработанная версия ТВ показа Первого канала
Страна: США, Walt Disney Television Animation
Жанр: Анимация, приключения
Сезон (количество): 1-3 сезоны
Серии (количество): 65
Продолжительность: ~ 22минуты
Год выпуска: 1989-1990
Перевод: Профессиональный (дублированный):
Останкино 1991г (52 серии) + Невафильм 2004г (13 серий)
Описание:
«Чип и Дейл спешат на помощь» (англ. «Chip 'n Dale Rescue Rangers») — приключенческий мультсериал, созданный студией Уолта Диснея. Авторы идеи — Алан Заслов и Тэд Стоун. Главными героями мультсериала являются переработанные классические диснеевские персонажи — антропоморфные бурундуки Чип и Дейл, а также трое их друзей: мышка-изобретательница Гайка, крыс Рокфор и его друг, муха по имени Вжик, вместе образующие «Команду Спасателей» (англ. Rescue Rangers).

Доп. информация - отличия данной сборки от других

Релиз является доработанной версией ранее выложенного ТВ релиза записанного с Первого Российского телеканала http://cybertorrent.ru/viewtopic.php?t=3633592
(в большинстве серий оригинальные русские названия и финальные титры)
Заменён звук в Intro (начальных заставках) для соответствия премьерному Российскому показу в 1991г.
Добавлены все показанные на российском тв варианты начальных заставок:
3 варианта на русском: в исполнении Валерия Панкова, Николая Парфенюка и Андрея Кузнецова
2 английских версии: оригинальная инструментальная и электронная версии от композитора Марка Мюллера исполненные группой «The Jets».
Увеличилось кол-во эпизодов где один и тот же диктор (Вячеслав Богачёв, Алексей Борзунов) с одинаковой интонацией зачитывают текст "Чип и Дейл спешат на помощь" и следом название серии.
(Звучит приятней и соотвествует премьерному Российскому показу 1991 года)
~ На пару гигов уменьшился размер релиза за счёт сжатия исходного звука MP2 384кб/c в AC3 192кб/c
Улучшилась совместимость с бытовыми DVD и сетевыми медиаплеерами (поддерживающими Xvid/Divx)
Качество: SATRip
Формат: AVI
Видео: XVID 704 x 528 , 25.000 fps MPEG-4 Visual at 2000 Кбит/сек
Аудио: 192кбит/сек, 48000Hz, AC3 2.0

Подробные технические данные

General
Complete name : F:\Chip 'n Dale Rescue Rangers Sat-rip 1kanal (Rus)\01.Похищенный рубин.avi
Format : AVI
Format/Info : Audio Video Interleave
File size : 348 MiB
Duration : 22mn 8s
Overall bit rate : 2 194 Kbps
Writing application : VirtualDubMod 1.5.10.2 (build 2540/release)
Writing library : VirtualDubMod build 2540/release
Video
ID : 0
Format : MPEG-4 Visual
Format profile : Advanced Simple@L5
Format settings, BVOP : 2
Format settings, QPel : No
Format settings, GMC : No warppoints
Format settings, Matrix : Default (H.263)
Codec ID : XVID
Codec ID/Hint : XviD
Duration : 22mn 8s
Bit rate : 1 992 Kbps
Width : 704 pixels
Height : 528 pixels
Display aspect ratio : 4:3
Frame rate : 25.000 fps
Color space : YUV
Chroma subsampling : 4:2:0
Bit depth : 8 bits
Scan type : Progressive
Compression mode : Lossy
Bits/(Pixel*Frame) : 0.214
Stream size : 316 MiB (91%)
Writing library : XviD 1.2.1 (UTC 2008-12-04)
Audio
ID : 1
Format : AC-3
Format/Info : Audio Coding 3
Mode extension : CM (complete main)
Format settings, Endianness : Big
Codec ID : 2000
Duration : 22mn 7s
Bit rate mode : Constant
Bit rate : 192 Kbps
Channel(s) : 2 channels
Channel positions : Front: L R
Sampling rate : 48.0 KHz
Bit depth : 16 bits
Compression mode : Lossy
Stream size : 30.4 MiB (9%)
Alignment : Split accross interleaves
Interleave, duration : 40 ms (1.00 video frame)
Interleave, preload duration : 500 ms

Список серий

01. Похищенный рубин / To the Rescue (part 1)
02. Как мы встретились с Рокфором / To the Rescue (part 2)
03. История знакомства с Гайкой / To the Rescue (part 3)
04. Итак, работаем вместе! / To the Rescue (part 4)
05. Конец истории с рубином / To the Rescue (part 5)
06. Подводные пираты / Piratsy Under the Seas
07. Кошки не в счет / Catteries Not Included
08. Обманщики по заказу / Short Order Crooks
09. Мой друг - летучая мышь / Good Times, Bat Times
10. Приключения коралловой клуши / Three Men and a Booby
11. Дейл-инопланетянин / Dale Beside Himself
12. Удивительная собака Флэш / Flash, the Wonder Dog
13. На старт! / Out to Launch
14. Большое приключение киви / Kiwi's Big Adventure
15. Как мы нянчились с бельчатами / Adventures in Squirrelsitting
16. Завещание сэра Баскервиля / Pound of the Baskervilles
17. Пчелы - дело рискованное / Risky Beesiness
18. Охотники за коврами / The Carpetsnaggers
19. Держись, малыш! / Bearing Up Baby
20. Родительское благоразумие - в сторону / Parental Discretion Retired
21. Волшебная лампа / A Lad in a Lamp
22. Не везет, так не везет / The Luck Stops Here
23. Битва в воздухе / Battle of the Bulge
24. Призрак удачи / Ghost of a Chance
25. А слон и не подозревал / An Elephant Never Suspects
26. Попробуй, обмани / Fake Me to Your Leader
27. Последний поезд в Долларвиль / Last Train to Cashville
28. Гроза подмостков / A Case of Stage Blight
29. Культ Ку-ку-колы / The Case of the Cola Cult
30. Похождения мумии / Throw Mummy From the Train
31. Забавный оборотень / A Wolf in Cheap Clothing
32. Робокот / Robocat
33. Знаете ли вы теорию Павлова? / Does Pavlov Ring a Bell?
34. Паника в музее / Prehysterical Pet
35. Подводный кошмар / A Creep in the Deep
36. Изобретение Норми / Normie's Science Project
37. Не искушай судьбу / Seer No Evil
38. Жертвы кораблекрушения / Chipwrecked Shipmunks
39. Когда все мыши замерли от страха / When Mice Were Men
40. Шоколадные чипсы / Chocolate Chips
41. Последний эльф / The Last Leprecaun
42. В любую погоду / Weather or Not
43. Великий Чип / One-Upsman-Chip
44. Ракушечный бум / Shellshocked
45. Сила любви / Love is a Many Splintered Thing
46. Ночная песня соловья / Song of the Night'n Dale
47. Бурундуки на секретной службе / Double'0 Chipmunk
48. Гайка на Гавайях / Gadget Goes Hawaiian
49. Туфли и айсберги / A Chorus Crime
50. Безумный Дейл / It's a Bird, It's Insane, It's Dale!
51. Сыру - мир! / Mind Your Cheese and Q's
52. Эффект масштаба / Out of Scale
53. Операция "Подгузник" / Dirty Rotten Diapers
54. Птицефабрика / Pie in the Sky
55. Бесстаршный воин / Le Purrfect Crime
56. Звёздам можно верить / When You Fish Upon a Star
57. Чернослив и день рождения / Rest Home Rangers
58. Не рой яму собаке / A Lean on the Property
59. Картофель под мышами / The Pied Piper Power Play
60. Плывет, плывет кораблик / The S.S. Drainpipe
61. Вжик, вернись домой / Zipper Come Home
62. Дутые спасатели / Puffed Rangers
63. Загнанных собак меняют? / They Shoot Dogs, Don't They?
64. Мухи - отдельно / A Fly in the Ointment
65. Гориллам не нужны бриллианты / Gorilla My Dreams

Скриншоты

[cybertorrent.ru].t1692.torrent 
Торрент: Зарегистрирован [ 2018-02-16 08:13 ] · 8E1FB10A0C16478B3DE152AB8ACBFBBD7CB76C69

Скачать .torrent

Скачать

57 KB

Статус: проверено
Скачан: 0 раз
Размер: 20,1 GB
Профиль [ЛС]
Показать сообщения:    

Текущее время: 21-Сен 17:35

Часовой пояс: UTC ± 0



Вы не можете начинать темы
Вы не можете отвечать на сообщения
Вы не можете редактировать свои сообщения
Вы не можете удалять свои сообщения
Вы не можете голосовать в опросах
Вы не можете прикреплять файлы к сообщениям
Вы можете скачивать файлы
Torrents24.ru открытый BitTorrent Torrents24.pl открытый BitTorrent CyberTorrent.ru открытый BitTorrent BtList.ru рейтинг BitTorrent трекеров Яндекс.Метрика