Статистика раздачи
Размер:  1,37 GB   |    Зарегистрирован:  3 месяца 11 дней   |    Скачан:  0 раз

Полного источника не было: Никогда

 
   
 
 

lopster ®

Пол:
Не указан
Стаж:
3 месяца 11 дней
Сообщений:
612

Злая шутка
- Жанр: Мелодрама
Год выпуска: 2017
Продолжительность: 01:28:14-Режиссёр: Сергей Швыдкой-В ролях: Диана Пожарская, Евгений Шириков, Илья Коробко, Мария Фомина, Дарья Екамасова, Артём Осипов, Нина Дворжецкая, Наталья Чернявская, Олег Новиков (IV), Александр Левин (II)-Описание: Катя, простая деревенская девчонка, провожает в армию своего парня Юру и едет учиться в Москву.
Катя полна решимости получить образование и готова к трудностям жизни на «большой земле». Но перед подлостью она оказывается беззащитной.
Однокурсники устраивают циничный розыгрыш и позорят Катю на весь институт. Юношеские мечты героини в одночасье разбиваются, и она вынуждена начать новую жизнь..-Сэмпл: http://multi-up.com/1139227-Качество видео: HDTVRip
Формат видео: AVI
Видео: 720х400 (16:9), 25.000 fps, XviD build 73, 2 016 Kbps
Аудио: 48 kHz, AC3 Dolby Digital, 2 ch, 192 Kbps-Релиз от: -

MediaInfo

General
Complete name : Downloads\Злая шутка.2016.HDTVRip.Files-x.avi
Format : AVI
Format/Info : Audio Video Interleave
File size : 1.37 GiB
Duration : 1h 28mn
Overall bit rate : 2 218 Kbps
Writing application : VirtualDubMod 1.5.10.3 | www.virtualdub-fr.org || (build 2550/release)
Writing library : VirtualDubMod build 2550/release
Video #0
ID : 0
Format : MPEG-4 Visual
Format profile : Advanced Simple@L5
Format settings, BVOP : 1
Format settings, QPel : No
Format settings, GMC : No warppoints
Format settings, Matrix : Custom
Codec ID : XVID
Codec ID/Hint : XviD
Duration : 1h 28mn
Bit rate : 2 016 Kbps
Width : 720 pixels
Height : 400 pixels
Display aspect ratio : 16:9
Frame rate : 25.000 fps
Color space : YUV
Chroma subsampling : 4:2:0
Bit depth : 8 bits
Scan type : Progressive
Compression mode : Lossy
Bits/(Pixel*Frame) : 0.280
Stream size : 1.24 GiB (91%)
Writing library : XviD 73
Audio #1
ID : 1
Format : AC-3
Format/Info : Audio Coding 3
Mode extension : CM (complete main)
Format settings, Endianness : Big
Codec ID : 2000
Duration : 1h 28mn
Bit rate mode : Constant
Bit rate : 192 Kbps
Channel(s) : 2 channels
Channel positions : Front: L R
Sampling rate : 48.0 KHz
Bit depth : 16 bits
Compression mode : Lossy
Stream size : 121 MiB (9%)
Alignment : Split accross interleaves
Interleave, duration : 40 ms (1.00 video frame)
Interleave, preload duration : 500 ms

Скриншот c названием фильма

Скриншоты

[cybertorrent.ru].t170.torrent 
Торрент: Зарегистрирован [ 2018-02-15 13:57 ] · 9C03C83ACF651626BF3B61222AC55D13F4B1A092

Скачать .torrent

Скачать

14 KB

Статус: проверено
Скачан: 0 раз
Размер: 1,37 GB
Профиль [ЛС]
Показать сообщения:    

Текущее время: 26-Май 15:22

Часовой пояс: UTC ± 0



Вы не можете начинать темы
Вы не можете отвечать на сообщения
Вы не можете редактировать свои сообщения
Вы не можете удалять свои сообщения
Вы не можете голосовать в опросах
Вы не можете прикреплять файлы к сообщениям
Вы можете скачивать файлы