Статистика раздачи
Размер:  3,52 GB   |    Зарегистрирован:  8 месяцев 3 дня   |    Скачан:  0 раз

Полного источника не было: Никогда

 
     
 
 

Гость ®

Пол:
Не указан

На краю

«Три молодые женщины становятся оружием в руках террористов»
- Год выпуска: 2019
Производство: Кинокомпания Русское
Жанр: Мелодрама
Продолжительность: 00:50:42
Субтитры: нет-Режиссёр: Евгений Лаврентьев-В ролях: Диана Пожарская, Софья Шуткина, Феруза Рузиева, Кирилл Дыцевич, Наташа Швец (II), Николай Фоменко, Евгения Дмитриева, Владимир Верёвочкин, Юлия Ауг, Никита Тезин, Артём Шкляев, Бесо Гатаев, Дмитрий Муляр-Описание: О жизни, любви и препятствиях, которые иногда кажется такими непреодолимыми. Пройти достойно испытания, не согнуться под гнетом проблем быта и существования, удается не всем, к сожалению. Для этого необходимы выдержка, устойчивость и немного терпения. В делах любви не должно быть спешки, зато всегда должны присутствовать доверие, уважение и преданность.
Студентка престижного столичного вуза Лена живёт в благополучной семье. Но её мир рушится, когда она узнаёт о предательстве любимого человека, с которым мечтала связать жизнь. Героиня попадает под колёса автомобиля и оказывается в больнице, где знакомится с Русланом. Вскоре после выписки Лену ждёт новое потрясение. Выясняется, что отец тоже неверен матери. Обожжённая двойным предательством, Лена всё больше привязывается к новому знакомому. Она ещё не знает, что Руслан - вербовщик, который ведёт страшную игру. Влюблённая Лена меняет веру, принимает ислам и отправляется на Родину любимого. Отец Лены в отчаянии бросается разыскивать дочь. Следы приводят его в Халифат...- -Качество: SATRip
Формат: AVI
Видео кодек: XviD
Аудио кодек: MP3
Видео: 720x304 (2.35:1), 25.000 fps, XviD build 73, 1453 Kbps, 0.26 Bits/Pixel
Аудио: 48 kHz, MP3, 2 ch, 192 Kbps
Реклама: Нет

Релиз

Автор рипа: 25Kuzmich
Без Рекламы

MI

General
Format : AVI
Format/Info : Audio Video Interleave
File size : 600 MiB
Duration : 50mn 42s
Overall bit rate : 1 655 Kbps
Writing application : VirtualDubMod 1.5.10.3 | www.virtualdub-fr.org || (build 2550/release)
Writing library : VirtualDubMod build 2550/release
Video #0
ID : 0
Format : MPEG-4 Visual
Format profile : Advanced Simple@L5
Format settings, BVOP : 1
Format settings, QPel : No
Format settings, GMC : No warppoints
Format settings, Matrix : Default (MPEG)
Codec ID : XVID
Codec ID/Hint : XviD
Duration : 50mn 42s
Bit rate : 1 453 Kbps
Width : 720 pixels
Height : 304 pixels
Display aspect ratio : 2.35:1
Frame rate : 25.000 fps
Color space : YUV
Chroma subsampling : 4:2:0
Bit depth : 8 bits
Scan type : Progressive
Compression mode : Lossy
Bits/(Pixel*Frame) : 0.265
Stream size : 527 MiB (88%)
Writing library : XviD 73
Audio #1
ID : 1
Format : MPEG Audio
Format version : Version 1
Format profile : Layer 3
Mode : Joint stereo
Mode extension : MS Stereo
Codec ID : 55
Codec ID/Hint : MP3
Duration : 50mn 42s
Bit rate mode : Constant
Bit rate : 192 Kbps
Channel(s) : 2 channels
Sampling rate : 48.0 KHz
Compression mode : Lossy
Stream size : 69.6 MiB (12%)
Alignment : Aligned on interleaves
Interleave, duration : 40 ms (1.00 video frame)
Interleave, preload duration : 504 ms
Writing library : LAME3.99r
Encoding settings : -m j -V 4 -q 2 -lowpass 18.6 -b 192

Скриншоты

Внимание! Раздача ведётся путём добавления новых серий:

(1) остановить скачивание,
(2) удалить старый торрент у себя из клиента (старые серии удалять не надо),
(3) скачать новый торрент и запустить его у себя в клиенте вместо старого, при этом указать клиенту путь в старую папку куда и должно происходить скачивание новых серий.
Ваш клиент при этом должен произвести хеширование (проверку) старой папки (если не производит сам - помогите ему сделать это), и будет докачивать только те серии которых у вас ещё нет. Старые серии при этом не удаляются, а продолжают раздаваться!
Eсли вы уже удалили старые серии, то предотвратить повторную закачку старых серий можно, отжав галочку в соответсвующих местах при запуске нового торрента. По возможности, желательно не удалять старые серии как можно дольше чтобы релизёр не столько продолжал раздавать старые серии, а смог сконцентрироваться на новых
.
Предыдущие и альтернативные раздачи
[cybertorrent.ru].t1709.torrent 
Торрент: Зарегистрирован [ 2019-04-03 17:08 ] · 021CE957DB32FDB2FF256D1B8F97C6A29FAC2085

Скачать .torrent

Скачать

18 KB

Статус: проверено
Скачан: 0 раз
Размер: 3,52 GB
terms.php
Показать сообщения:    

Текущее время: 07-Дек 12:38

Часовой пояс: UTC ± 0



Вы не можете начинать темы
Вы не можете отвечать на сообщения
Вы не можете редактировать свои сообщения
Вы не можете удалять свои сообщения
Вы не можете голосовать в опросах
Вы не можете прикреплять файлы к сообщениям
Вы можете скачивать файлы