Статистика раздачи
Размер:  1,45 GB   |    Зарегистрирован:  3 месяца 11 дней   |    Скачан:  0 раз

Полного источника не было: Никогда

 
   
 
 

lopster ®

Пол:
Не указан
Стаж:
3 месяца 11 дней
Сообщений:
612

Путешествие во влюбленность / В Интернете я плутала, жениха себе искала Год выпуска: 2007.
Жанр: комедийная мелодрама.
Продолжительность: 01:42:16.
Режиссер: Евгений Лунгин.
В ролях:
Эльвира Болгова, Дмитрий Марьянов, Юлия Куварзина, Анна Ардова, Руслан Садковский, Михаил Богдасаров, Алексей Зуев, Максим Литовченко, Григорий Данцигер, Геннадий Храпунков, Василий Белокопытов, Александр Третьяков, Илья Третьяков.
Описание:
Катерина молодая успешная женщина, только вот счастья в личной жизни нет… По настоянию подруг и шутки ради, она решает познакомиться с кем-нибудь посредством Интернета. Выбрав четырех заграничных «королей» Катерина назначает им свидания. Но что-то не ладится. Один кандидат в законные мужья оказывается патологически скуп, другой маньяк, третий с «приданым», дочерью от первого брака, четвертому она не подходит по «габаритам». Ожидая одного из претендентов в аэропорту, Катерина случайно встречает там своего соседа Бориса, забыв дела, Борис и Катерина отправляются гулять по городу. Между героями возникает симпатия, и постепенно Катерина понимает, что Борис именно тот человек, которого она искала, и для того чтобы обрести свое счастье не обязательно «плутать в Интернете», достаточно всего лишь посмотреть вокруг…
Доп. информация:
Страна: Россия .
Киностудия: "Мостелефильм" по заказу "Star Media".
Автор сценария: Вадим Авлошенко.
Оператор: Дмитрий Мишин.
Композитор: Шандор Каллош.
Художники: Евгений Лунгин, Наталья Чабоненко.
Премьера: 19 января 2008 года.
Награды и номинации:
• 7-13 сентября 2007 г., Ялта, Международный Телекинофорум "Вместе" - Приз за создание яркого актерского ансамбля - Анне Ардовой, Эльвире Болговой, Юлии Куварзиной.

Релиз
Рип sharky.

Еще постеры


Качество: WEB-DLRip
Формат: AVI
Видео: 704x400 (1.76:1), 25 fps, DivX Codec 4.x ~1893 kbps avg, 0.27 bit/pixel
Аудио: 44.100 kHz, MPEG Layer 3, 2 ch, ~128.00 kbps avg

Отчет Media Info

Общее
Полное имя Puteshestvie.vo.vlyublyonnost'.2007.DivX.WEB-DLRip.fenixclub.avi
Format : AVI
Format/Info : Audio Video Interleave
File size : 1.45 GiB
Duration : 1h 42mn
Overall bit rate : 2 031 Kbps
Video
ID : 0
Format : MPEG-4 Visual
Format settings, BVOP : 1
Format settings, QPel : No
Format settings, GMC : No warppoints
Format settings, Matrix : Default (H.263)
Codec ID : DX50
Codec ID/Hint : DivX 5
Duration : 1h 42mn
Bit rate : 1 893 Kbps
Width : 704 pixels
Height : 400 pixels
Display aspect ratio : 16:9
Frame rate : 25.000 fps
Color space : YUV
Chroma subsampling : 4:2:0
Bit depth : 8 bits
Scan type : Progressive
Compression mode : Lossy
Bits/(Pixel*Frame) : 0.269
Stream size : 1.35 GiB (93%)
Title : Video
Writing library : DivX 3013
Audio
ID : 1
Format : MPEG Audio
Format version : Version 1
Format profile : Layer 3
Codec ID : 55
Codec ID/Hint : MP3
Duration : 1h 42mn
Bit rate mode : Constant
Bit rate : 128 Kbps
Channel(s) : 2 channels
Sampling rate : 44.1 KHz
Compression mode : Lossy
Stream size : 93.6 MiB (6%)
Alignment : Split accross interleaves
Interleave, duration : 40 ms (1.00 video frame)
Interleave, preload duratio : 500 ms
Title : Audio

Скриншоты


Альтернативный хост


[cybertorrent.ru].t171.torrent 
Торрент: Зарегистрирован [ 2018-02-15 13:57 ] · 9992E03DC00B2FD6BF941EBE1CA01CC7D74B7ED2

Скачать .torrent

Скачать

15 KB

Статус: проверено
Скачан: 0 раз
Размер: 1,45 GB
Профиль [ЛС]
Показать сообщения:    

Текущее время: 26-Май 15:27

Часовой пояс: UTC ± 0



Вы не можете начинать темы
Вы не можете отвечать на сообщения
Вы не можете редактировать свои сообщения
Вы не можете удалять свои сообщения
Вы не можете голосовать в опросах
Вы не можете прикреплять файлы к сообщениям
Вы можете скачивать файлы