Статистика раздачи
Размер:  8,01 GB   |    Зарегистрирован:  8 месяцев 26 дней   |    Скачан:  0 раз

Полного источника не было: Никогда

 
   
 
 

karapuz ®

Пол:
Не указан
Стаж:
8 месяцев 27 дней
Сообщений:
128

Щенок по кличке Скуби Ду / A Pup Named Scooby-Doo
Страна: США
Жанр: Мультипликация
Продолжительность: ~00:22:00
Год выпуска: 1988-1991
Перевод: Профессиональный (дублированный) Пифагор 2013
Русские субтитры: нет
Режиссёр: Дон Ласк/Don Lusk, Карл Урбано/Carl Urbano
Роли озвучивали: Кэйси Касэм, Дон Мессик, Кристина Ланж, Келли Мартин, Карл Стивен
Описание: Когда Шэгги, Дафна, Велма и Фред еще ходили пешком под стол, а Скуби-Ду был размером с банку варенья, друзья уже проводили головокружительные расследования.
Релиз от -
СПАСИБО Alukarrraaa и Raptorio Rio за любезно предоставленные звуковые дорожки.
Качество: DVDRip
Формат: AVI
Видео: MPEG4, XviD, 640x496 (1.285), 23.976 fps, 1 630 Kbps (0.214 bit/pixel)
Аудио: MP3, 44.1 KHz, 2 ch, 192 Kbps, CBR
Субтитры: отсутствуют
Семпл: Забираем тут
Ссылка на предыдущие и альтернативные раздачи: Тут

Список серий:

1 сезон:
s1e01 - A Bicycle Built For Boo! / Пропавший велосипед
s1e02 - The Sludge Monster from the Earth's Core / Скользкий монстр
s1e03 - The Schnook Who Took My Comic Book / Воришка комиксов
s1e04 - Wanted Cheddar Alive / Вооружен и сырноопасен
s1e05 - For Letter or Worse / Озеро чудес
s1e06 - The Babysitter from Beyond / Моя ужасная няня
s1e07 - Now Museum, Now You Don't / Мечи самурая
s1e08 - Snow Place Like Home / Как снег на голову
s1e09 - Scooby Dude / Скуби друг
s1e10 - Ghost Who's Coming to Dinner / Призрак зашедший на ужин
s1e11 - The Story Stick / Лучшая история
s1e12 - Robopup / Робопес
s1e13 - Lights...Camera...Monster / Свет...Камера...Монстр
2 сезон:
s2e01 - Curse of the Collar / Проклятие ошейника
s2e02 - The Return of Commander Cool / Возвращение командира Кула
s2e03 - The Spirit of Rock and Roll / Призрак рок-н-ролла
s2e04 - Chickenstein Lives! / Куринштейн жив
s2e05 - Night of the Living Burger / Вредный фастфуд
s2e06 - The Computer Walks Among Us / Вторжение роботов
s2e07 - Dog Gone Scooby / Дом, милый дом.
s2e08 - Terror, Thy Name Is Zombo / Ужас по имени Зомбо
3 сезон:
s3e01 - Night of the Boogey Biker / Загадочный гонщик
s3e02 - Dawn of the Spooky Shuttle Scare / К звездам
s3e03 - Wrestle Maniacs / Рогатый нокаут
s3e04 - Horror of the Haunted Hairpiece / Великий и ужасный Лохмач
4 сезон:
s4e01 - The Were-Doo of Doo Manor / Проклятье поместья Ду
s4e02 - Catcher on the Sly / Таинственный охотник
s4e03 - The Ghost of Mrs. Shusham / Призрак миссис Шушман
s4e04 - The Wrath of Waitro / Приключения командора Крутышки и его КрутоПса
s4e05 - Mayhem of the Moving Mollusk / Скользкое дело

Подробные технические данные

Формат : AVI
Формат/Информация : Audio Video Interleave
Размер файла : 304 Мбайт
Продолжительность : 23 м.
Общий поток : 1832 Кбит/сек
Программа кодирования : VirtualDubMod 1.5.10.2 (build 2542/release)
Библиотека кодирования : VirtualDubMod build 2542/release
Видео
Идентификатор : 0
Формат : MPEG-4 Visual
Профиль формата : Advanced Simple@L5
Параметр BVOP формата : 2
Параметр QPel формата : Нет
Параметр GMC формата : Без точки перехода
Параметр матрицы формата : Default (H.263)
Идентификатор кодека : XVID
Идентификатор кодека/Подсказка : XviD
Продолжительность : 23 м.
Битрейт : 1630 Кбит/сек
Ширина : 640 пикселей
Высота : 496 пикселей
Соотношение сторон : 1,288
Соотношение сторон в оригинале : 1,285
Частота кадров : 23,976 кадра/сек
Цветовое пространство : YUV
Субдискретизация насыщенности : 4:2:0
Битовая глубина : 8 бит
Тип развёртки : Прогрессивная
Метод сжатия : С потерями
Бит/(Пиксели*Кадры) : 0.214
Размер потока : 271 Мбайт (89%)
Библиотека кодирования : XviD 1.2.1 (UTC 2008-12-04)
Аудио
Идентификатор : 1
Формат : MPEG Audio
Версия формата : Version 1
Профиль формата : Layer 3
Идентификатор кодека : 55
Идентификатор кодека/Подсказка : MP3
Продолжительность : 23 м.
Вид битрейта : Постоянный
Битрейт : 192 Кбит/сек
Каналы : 2 канала
Частота : 44,1 КГц
Метод сжатия : С потерями
Размер потока : 31,9 Мбайт (10%)
Выравнивание : Разделение по промежуткам
Продолжительность промежутка : 42 мс. (1,00 видеокадр)
Время предзагрузки промежутка : 500 мс.
Библиотека кодирования : LAME

Внимание! Раздача ведется путем добавления новых серий

Внимание! Раздача ведётся путём добавления новых серий; при каждом добавлении создётся новый торрент. Чтобы начать докачку новой серии, пользователям необходимо сделать следующее:
(1) остановить скачивание,
(2) удалить старый торрент у себя из клиента (старые серии удалять не надо),
(3) скачать новый торрент и запустить его у себя в клиенте вместо старого, при этом указать клиенту путь в старую папку куда и должно происходить скачивание новых серий.
Ваш клиент при этом должен произвести хеширование (проверку) старой папки (если не производит сам - помогите ему сделать это), и будет докачивать только те серии которых у вас ещё нет. Старые серии при этом не удаляются, а продолжают раздаваться!
Eсли вы уже удалили старые серии, то предотвратить повторную закачку старых серий можно, отжав галочку в соответсвующих местах при запуске нового торрента. По возможности, желательно не удалять старые серии как можно дольше чтобы релизёр не столько продолжал раздавать старые серии, а смог сконцентрироваться на новых.
[cybertorrent.ru].t1713.torrent 
Торрент: Зарегистрирован [ 2018-02-16 08:44 ] · 7A1B959A3AD025E34B6AB141F861F92FA5E4F522

Скачать .torrent

Скачать

42 KB

Статус: проверено
Скачан: 0 раз
Размер: 8,01 GB
Профиль [ЛС]
Показать сообщения:    

Текущее время: 15-Ноя 06:33

Часовой пояс: UTC ± 0



Вы не можете начинать темы
Вы не можете отвечать на сообщения
Вы не можете редактировать свои сообщения
Вы не можете удалять свои сообщения
Вы не можете голосовать в опросах
Вы не можете прикреплять файлы к сообщениям
Вы можете скачивать файлы
Torrents24.ru открытый BitTorrent Torrents24.pl открытый BitTorrent CyberTorrent.ru открытый BitTorrent BtList.ru рейтинг BitTorrent трекеров Яндекс.Метрика