Статистика раздачи
Размер:  1,37 GB   |    Зарегистрирован:  3 месяца 12 дней   |    Скачан:  0 раз

Полного источника не было: Никогда

 
   
 
 

lopster ®

Пол:
Не указан
Стаж:
3 месяца 12 дней
Сообщений:
612

Петрович
- Жанр: Драма, криминал
Год выпуска: 2016
Продолжительность: 01:34:19-Режиссёр: Всеволод Аравин-В ролях: Игорь Бочкин, Анна Легчилова, Юрий Беляев, Наталья Корольская, Михаил Васильев (VII), Артур Сопельник, Анатолий Горин, Михаил Сидаш, Алексей Одинг, Татьяна Мишина (II), Андрей Мокеев-Описание: Бывший сотрудник ОМОНа Ивана Петрович Калугин (Игорь Бочкин) давно отошел от дел. Он живет в тихом рыбацком поселке вместе с семьей – женой Катей (Анна Легчилова), невесткой и старшим сыном Артёмом (Михаил Васильев). Как примерный семьянин и хороший хозяин, Петрович держит под контролем не только семью. Вместе с Артёмом Петрович водит баркас и рыбачит, а в свободное время решает конфликты соседей и гоняет местных браконьеров. В поселке его побаиваются, но уважают, ведь жители знают: Петрович всегда поступит справедливо и по совести!
Но размеренная деревенская жизнь неожиданно заканчивается, когда в семью возвращается второй сын Петровича – Семён (Артур Сопельник). Не сумев прижиться в большом городе, блудный отпрыск влез в огромные долги и теперь скрывается от кредиторов. Вскоре в поисках долга на пороге дома Петровича появляются и сами бандиты. Оказывается, что у криминального авторитета Князева (Юрий Беляев) есть свои счеты и с самим Калугиным: один из братков узнал в Петровиче того, кто двадцать лет назад во время облавы убил брата Князя…
Петрович понимает, что помощи ждать неоткуда, и тогда он разрабатывает план, как спасти непутевого сына и защитить свою семью.-Сэмпл: http://multi-up.com/1139274-Качество видео: HDTVRip
Формат видео: AVI
Видео: 720х384 (1.85:1), 25.000 fps, XviD build 73, 1 867 Kbps
Аудио: 48 kHz, AC3 Dolby Digital, 2 ch, 192 Kbps-Релиз от: -

MediaInfo

General
Complete name : Downloads\petrovich.2016.HDTVRip.Files-x.avi
Format : AVI
Format/Info : Audio Video Interleave
File size : 1.37 GiB
Duration : 1h 34mn
Overall bit rate : 2 069 Kbps
Writing application : VirtualDubMod 1.5.10.3 | www.virtualdub-fr.org || (build 2550/release)
Writing library : VirtualDubMod build 2550/release
Video #0
ID : 0
Format : MPEG-4 Visual
Format profile : Advanced Simple@L5
Format settings, BVOP : 1
Format settings, QPel : No
Format settings, GMC : No warppoints
Format settings, Matrix : Custom
Codec ID : XVID
Codec ID/Hint : XviD
Duration : 1h 34mn
Bit rate : 1 867 Kbps
Width : 720 pixels
Height : 384 pixels
Display aspect ratio : 1.85:1
Frame rate : 25.000 fps
Color space : YUV
Chroma subsampling : 4:2:0
Bit depth : 8 bits
Scan type : Progressive
Compression mode : Lossy
Bits/(Pixel*Frame) : 0.270
Stream size : 1.23 GiB (90%)
Writing library : XviD 73
Audio #1
ID : 1
Format : AC-3
Format/Info : Audio Coding 3
Mode extension : CM (complete main)
Format settings, Endianness : Big
Codec ID : 2000
Duration : 1h 34mn
Bit rate mode : Constant
Bit rate : 192 Kbps
Channel(s) : 2 channels
Channel positions : Front: L R
Sampling rate : 48.0 KHz
Bit depth : 16 bits
Compression mode : Lossy
Stream size : 130 MiB (9%)
Alignment : Split accross interleaves
Interleave, duration : 40 ms (1.00 video frame)
Interleave, preload duration : 500 ms

Скриншот c названием фильма

Скриншоты

[cybertorrent.ru].t172.torrent 
Торрент: Зарегистрирован [ 2018-02-15 13:57 ] · 26447F0AC454FD64CAD950E5B4F6E28D3E40AC45

Скачать .torrent

Скачать

14 KB

Статус: проверено
Скачан: 0 раз
Размер: 1,37 GB
Профиль [ЛС]
Показать сообщения:    

Текущее время: 28-Май 08:12

Часовой пояс: UTC ± 0



Вы не можете начинать темы
Вы не можете отвечать на сообщения
Вы не можете редактировать свои сообщения
Вы не можете удалять свои сообщения
Вы не можете голосовать в опросах
Вы не можете прикреплять файлы к сообщениям
Вы можете скачивать файлы