BitTorrent клиенты



Новый кулак ярости / New Fist Of Fury / Xin jing wu men (Вэй Ло / Wei Lo) [1976, Гонконг, Боевые искусства, HDRip] AVO (Юрий Живов)

Ответить на тему
Статистика раздачи
Размер:  1,45 GB   |    Зарегистрирован:  11 месяцев 25 дней   |    Скачан:  0 раз

Полного источника не было: Никогда

 
   
 
 
Автор Сообщение

StartSoft ®

Пол: Не указан

Стаж: 1 год

Сообщений: 1587

Создавать темы 24-Фев-2018 13:43

[Цитировать]

Новый кулак ярости / New Fist Of Fury / Xin jing wu men
Страна: Гонконг
Жанр: Боевые искусства
Год выпуска: 1976
Продолжительность: 02:00:06
Перевод: Авторский (одноголосый закадровый) Юрий Живов
Субтитры: нет
Режиссер: Вэй Ло / Wei Lo
В ролях: Джеки Чан, Минг Чэн Чанг, Шен Лин Чанг, Чао-Юн Чен, Джен Чен, Синг Чан, Сиу Сиу Ченг, Кэм Чунг, Су Ханг, Инь-Чиэ Хань
Описание: Сиквел к «Кулаку ярости» с Брюсом Ли начинается там же, где заканчивается оригинальный фильм. Оставшиеся три соратника героя Брюса Ли, убитого в первом фильме, уезжают из Шанхая на Тайвань, чтобы продолжить там свою борьбу с японскими захватчиками. -- В это время там появляется новый начальник-японец, большой специалист по боевым искусствам, который решает взять под свою юрисдикцию все школы китайских боевых искусств, что, естественно, не нравится китайцам. Джеки Чан же здесь играет уличного воришку, которого «волею судеб» заносит в школу героя Хана Ин Чи, куда попадает и троица из Шанхая....
Доп. информация: Видеоряд взял здесь http://rutracker.org/forum/viewtopic.php?t=5442932
Сэмпл: https://yadi.sk/i/mDoFrhif3RdqGQ
Качество видео: HDRip
Формат видео: AVI
Видео: XviD , 720x320 (2,25:1), 23.976 fps, 1 540 Kbps
Аудио: AC3 , 48 kHz ,192.00 kbps avg , 2/0 (L,R) ch

MediaInfo

Complete name Новый кулак ярости 1976 (Ю.Живов).avi
Format : AVI
Format/Info : Audio Video Interleave
File size : 1.45 GiB
Duration : 1h 58mn
Overall bit rate : 1 741 Kbps
Writing application : VirtualDubMod 1.5.10.3 | www.virtualdub-fr.org || (build 2550/release)
Writing library : VirtualDub build 35491/release
Video
ID : 0
Format : MPEG-4 Visual
Format profile : Advanced Simple@L5
Format settings, BVOP : 2
Format settings, QPel : No
Format settings, GMC : No warppoints
Format settings, Matrix : Custom
Codec ID : XVID
Codec ID/Hint : XviD
Duration : 1h 58mn
Bit rate : 1 540 Kbps
Width : 720 pixels
Height : 320 pixels
Display aspect ratio : 2.25:1
Frame rate : 23.976 (23976/1000) fps
Color space : YUV
Chroma subsampling : 4:2:0
Bit depth : 8 bits
Scan type : Progressive
Compression mode : Lossy
Bits/(Pixel*Frame) : 0.279
Stream size : 1.28 GiB (88%)
Writing library : XviD 73
Audio
ID : 1
Format : AC-3
Format/Info : Audio Coding 3
Mode extension : CM (complete main)
Format settings, Endianness : Big
Codec ID : 2000
Duration : 1h 58mn
Bit rate mode : Constant
Bit rate : 192 Kbps
Channel(s) : 2 channels
Channel positions : Front: L R
Sampling rate : 48.0 KHz
Frame rate : 31.250 fps (1536 spf)
Compression mode : Lossy
Stream size : 163 MiB (11%)
Alignment : Aligned on interleaves
Interleave, duration : 42 ms (1.00 video frame)
Interleave, preload duratio : 512 ms
[cybertorrent.ru].t17388.torrent 
Торрент: Зарегистрирован [ 2018-02-24 13:50 ] · 5AE5186076309C220E8927CB1FBDE85F0FB3EC15

Скачать .torrent

Скачать

15 KB

Статус: проверено
Скачан: 0 раз
Размер: 1,45 GB
terms.php
[Профиль] [ЛС]
Показать сообщения:    
Ответить на тему

Текущее время: 22-Фев 03:25

Часовой пояс: UTC + 3



Вы не можете начинать темы
Вы не можете отвечать на сообщения
Вы не можете редактировать свои сообщения
Вы не можете удалять свои сообщения
Вы не можете голосовать в опросах
Вы не можете прикреплять файлы к сообщениям
Вы можете скачивать файлы