Статистика раздачи
Размер:  11,22 GB   |    Зарегистрирован:  7 месяцев 4 дня   |    Скачан:  0 раз
DL-List: Нет

Полного источника не было: Никогда

 
     
 
 

MAGNAT ®

Пол:
Мужской
Стаж:
1 год 7 месяцев
Сообщений:
9096

Сыны анархии / Sons of Anarchy-«Let freedom ride»-Season 5- Страна: США
Год выпуска: 2011
Жанр: Триллер, Драма, Криминал
Продолжительность: ~00:53-Перевод: Профессиональный (многоголосый закадровый) | LostFilm
(1, 4, 6, 13 серии на Blu-Ray выходили расширенными, поэтому в них есть моменты без перевода)
Оригинальная аудиодорожка: Отсутствует
Субтитры: Отсутствуют
Реклама: Отсутствует-Режиссёр: Пэрис Барклай / Paris Barclay, Гай Ферленд / Guy Ferland, Гвинет Хердер-Пэйтон / Gwyneth Horder-Payton и др.-В ролях: Чарли Ханнэм / Jackson «Jax» Teller, Рон Перлман / Clarence «Clay» Morrow, Кэти Сагал / Gemma Teller Morrow, Марк Бун Джуниор / Robert «Bobby Elvis» Munson, Ким Коутс / Alexander «Tig» Trager, Томми Флэнаган / Filip «Chibs» Telford, Тео Росси / Juan Carlos «Juice» Ortiz, Дэйтон Калли / Wayne Unser, Мэгги Сифф / Dr. Tara Knowles, Дэвид Лабрава / Happy Lowman и др.-Описание:Сериал рассказывает о клубе байкеров, которые пытаются защитить свой городок от наркотиков и влияния извне, хотя сами грешат торговлей оружием. Молодой лидер клуба не слишком уверен в том, что выбрал правильный путь, и пытается что-то изменить, к неудовольствию своих мамы и отчима.
Качество видео: BDRip-AVC
Формат видео: MKV-Видео: 1024x576 (16:9), 23.976 fps, x264, 2115 kbps avg, 0.150 bit/pixel
Аудио: 48 kHz, AC3 Dolby Digital, 2/0 (L,R) ch, 192 kbps| LostFilm-

Список серий

1 серия - Самодержец / Sovereign
2 серия - Властью наделённый / Authority Vested
3 серия - Выбор мишени / Laying Pipe
4 серия - Украденный велосипед / Stolen Huffy
5 серия - Туша вздрогнула / Orca Shrugged
6 серия - Мир тесен / Small World
7 серия - Сумасшедшая езда / Toad's Wild Ride
8 серия - Разрушение / Ablation
9 серия - Пойти порыбачить / Andare Pescare
10 серия - Распятый / Crucifixed
11 серия - Каждому своё / To Thine Own Self
12 серия - Укол / Darthy
13 серия - Всё под контролем / J'ai Obtenu Cette
-

MediaInfo

Format : Matroska
Format version : Version 4
File size : 988 MiB
Duration : 59 min 52 s
Overall bit rate : 2 308 kb/s
Encoded date : UTC 2020-04-11 15:02:38
Writing application : mkvmerge v25.0.0 ('Prog Noir') 64-bit
Writing library : libebml v1.3.6 + libmatroska v1.4.9
Video
ID : 1
Format : AVC
Format/Info : Advanced Video Codec
Format profile : High@L4
Format settings : CABAC / 13 Ref Frames
Format settings, CABAC : Yes
Format settings, Reference : 13 frames
Codec ID : V_MPEG4/ISO/AVC
Duration : 59 min 52 s
Bit rate : 2 115 kb/s
Width : 1 024 pixels
Height : 576 pixels
Display aspect ratio : 16:9
Frame rate mode : Constant
Frame rate : 23.976 FPS
Color space : YUV
Chroma subsampling : 4:2:0
Bit depth : 8 bits
Scan type : Progressive
Bits/(Pixel*Frame) : 0.150
Stream size : 905 MiB (92%)
Title : Sons.Of.Anarchy.S05.E01.2012.RUS.BDRip-AVC.AC3.-AngelOfTrue
Writing library : x264 core 148 r2638 7599210
Encoding settings : cabac=1 / ref=13 / deblock=1:-3:-3 / analyse=0x3:0x113 / me=umh / subme=11 / psy=1 / psy_rd=1.00:0.00 / mixed_ref=1 / me_range=32 / chroma_me=1 / trellis=2 / 8x8dct=1 / cqm=0 / deadzone=21,11 / fast_pskip=0 / chroma_qp_offset=-2 / threads=9 / lookahead_threads=2 / sliced_threads=0 / nr=0 / decimate=0 / interlaced=0 / bluray_compat=0 / constrained_intra=0 / bframes=14 / b_pyramid=2 / b_adapt=2 / b_bias=0 / direct=3 / weightb=1 / open_gop=0 / weightp=2 / keyint=240 / keyint_min=23 / scenecut=40 / intra_refresh=0 / rc_lookahead=60 / rc=2pass / mbtree=0 / bitrate=2115 / ratetol=1.0 / qcomp=0.65 / qpmin=0 / qpmax=69 / qpstep=4 / cplxblur=20.0 / qblur=0.5 / vbv_maxrate=20000 / vbv_bufsize=25000 / nal_hrd=none / filler=0 / ip_ratio=1.35 / pb_ratio=1.25 / aq=1:0.60
Language : Russian
Default : Yes
Forced : Yes
Color range : Limited
Color primaries : BT.709
Transfer characteristics : BT.709
Matrix coefficients : BT.709
Audio
ID : 2
Format : AC-3
Format/Info : Audio Coding 3
Commercial name : Dolby Digital
Codec ID : A_AC3
Duration : 59 min 51 s
Bit rate mode : Constant
Bit rate : 192 kb/s
Channel(s) : 2 channels
Channel layout : L R
Sampling rate : 48.0 kHz
Frame rate : 31.250 FPS (1536 SPF)
Compression mode : Lossy
Stream size : 82.2 MiB (8%)
Title : MVO LostFilm
Language : Russian
Service kind : Complete Main
Default : Yes
Forced : Yes
-

Скриншоты

[cybertorrent.ru].t17449.torrent 
Торрент: Зарегистрирован [ 2020-04-23 08:04 ] · 8F94723EEAAD27E61ADD9117E34EA507909B34F8

Скачать .torrent

Скачать

30 KB

Статус: проверено
Скачан: 0 раз
Размер: 11,22 GB  ·  Тип торрента
terms.php
Профиль [ЛС]
Показать сообщения:    

Текущее время: 27-Ноя 09:11

Часовой пояс: UTC ± 0



Вы не можете начинать темы
Вы не можете отвечать на сообщения
Вы не можете редактировать свои сообщения
Вы не можете удалять свои сообщения
Вы не можете голосовать в опросах
Вы не можете прикреплять файлы к сообщениям
Вы можете скачивать файлы