Статистика раздачи
Размер:  3,11 GB   |    Зарегистрирован:  7 месяцев 4 дня   |    Скачан:  0 раз
DL-List: Нет

Полного источника не было: Никогда

 
     
 
 

MAGNAT ®

Пол:
Мужской
Стаж:
1 год 7 месяцев
Сообщений:
9096

Милые беды / Les beaux malaises
Год выпуска: 2014
Страна: Канада
Жанр: комедия
Продолжительность: ~00:21:00
Перевод: Любительский (двухголосый закадровый) ViruseProject
Режиссёр: Франсис Леклер, Николя Монетт
В ролях: Мартин Мэтт, Жюли Лебретон, Эмили Бьер, Чарльз Уильям Росс, Патрис Робитай, Мартин Периццоло и др.
Описание: В центре комедийного сериала — история Мартена Штейна. У главного героя сериала "Милые беды" — замечательная семья: жена Жюли, дочь и сын. Но, как и в каждой семье, между близкими людьми возникают сложности в общении. Жюли решает поделиться своими проблемами с подругой и та дает совет — обратиться к психотерапии. Таким образом, Мартен и Жюли получают возможность обсуждать друг с другом возникающие неприятности. Правда, подобная семейная психотерапия приводит к неожиданным последствиям...

Награды: 6 премий "Жемо / Prix Gemeaux" 2014 Академии кино и телевидения Канады за Сезон 1 (лучший комедийный сериал, режиссер, сценарий, исполнитель главной роли - Martin Matte, исполнительница главной роли - Julie LeBreton, актер второго плана - Patrice Robitaille) + 2 номинации (оператор, монтаж); 8 премий "Жемо / Prix Gemeaux" 2015 Академии кино и телевидения Канады за Сезон 2 (лучший комедийный сериал, режиссер, сценарий, художник-постановщик, исполнитель главной роли - Martin Matte, исполнительница главной роли - Julie LeBreton, актер второго плана - Fabien Cloutier, лучшая цифровая продукция - за сайт) + 10 номинаций (оператор, монтаж, кастинг, музыкальная тема, актер второго плана - Normand D'Amour, актер второго плана - Martin Perrizzolo, актер второго плана - Patrice Robitaille, актриса второго плана - Joanie Martel, актриса второго плана - Michele Deslauriers, актриса второго плана - Cristiane Pasquier); 4 премии "Жемо / Prix Gemeaux" 2016 Академии кино и телевидения Канады за Сезон 3 (лучший комедийный сериал, режиссер, сценарий, исполнительница главной роли - Julie LeBreton) + 5 номинаций (лучшая музыкальная тема, лучший графический дизайн, исполнитель главной роли - Martin Matte, актриса второго плана - Michele Deslauriers, лучшая цифровая продукция - за сайт); премия Rockies Awards 2015 за лучший франкоязычный сериал.
Качество: HDRip
Формат: AVI
Видео: 720x400 (16:9), 23,976 кадров/сек, XviD 67, ~1800 Кбит/сек
Аудио Rus: 48,0 КГц, MP3, 2 канала, 128 Кбит/сек
Аудио Fre: 48,0 КГц, MP3, 2 канала, 128 Кбит/сек
Субтитры: русские (Eclair Media)
Реклама: НЕТ

MediaInfo

Общее
Полное имя : Les.beaux.malaises.S01E01.400p.HDRip.ViruseProject.avi
Формат : AVI
Формат/Информация : Audio Video Interleave
Размер файла : 319 Мбайт
Продолжительность : 21 м. 31 с.
Режим общего битрейта : Переменный
Общий поток : 2070 Кбит/сек
Программа кодирования : VirtualDubMod 1.5.10.2 (build 2540/release)
Библиотека кодирования : VirtualDubMod build 2540/release
Видео
Идентификатор : 0
Формат : MPEG-4 Visual
Профиль формата : Advanced Simple@L5
Настройки формата : BVOP1
Параметр BVOP формата : 1
Параметр QPel формата : Нет
Параметр GMC формата : Без точки перехода
Параметр матрицы формата : Default (MPEG)
Идентификатор кодека : XVID
Идентификатор кодека/Подсказка : XviD
Продолжительность : 21 м. 31 с.
Битрейт : 1800 Кбит/сек
Ширина : 720 пикселей
Высота : 400 пикселей
Соотношение сторон : 16:9
Частота кадров : 23,976 (24000/1001) кадра/сек
Цветовое пространство : YUV
Субдискретизация насыщенности : 4:2:0
Битовая глубина : 8 бит
Тип развёртки : Прогрессивная
Метод сжатия : С потерями
Бит/(Пиксели*Кадры) : 0.261
Размер потока : 277 Мбайт (87%)
Библиотека кодирования : XviD 67
Аудио #1
Идентификатор : 1
Формат : MPEG Audio
Версия формата : Version 1
Профиль формата : Layer 3
Настройки формата : Joint stereo / MS Stereo
Идентификатор кодека : 55
Идентификатор кодека/Подсказка : MP3
Продолжительность : 21 м. 31 с.
Вид битрейта : Переменный
Битрейт : 128 Кбит/сек
Каналы : 2 канала
Частота : 48,0 КГц
Частота кадров : 41,667 кадра/сек (1152 SPF)
Метод сжатия : С потерями
Размер потока : 19,7 Мбайт (6%)
Выравнивание : Соединение по промежуткам
Продолжительность промежутка : 42 мс. (1,00 видеокадр)
Время предзагрузки промежутка : 504 мс.
Аудио #2
Идентификатор : 2
Формат : MPEG Audio
Версия формата : Version 1
Профиль формата : Layer 3
Настройки формата : Joint stereo / MS Stereo
Идентификатор кодека : 55
Идентификатор кодека/Подсказка : MP3
Продолжительность : 21 м. 31 с.
Продолжительность оригинала : 21 м. 31 с.
Вид битрейта : Постоянный
Битрейт : 128 Кбит/сек
Каналы : 2 канала
Частота : 48,0 КГц
Метод сжатия : С потерями
Размер потока : 19,7 Мбайт (6%)
Выравнивание : Разделение по промежуткам
Продолжительность промежутка : 42 мс. (1,00 видеокадр)
Время предзагрузки промежутка : 500 мс.
Библиотека кодирования : LAME3.100UUUUUUѹ$Ž7

Скриншоты

[cybertorrent.ru].t17454.torrent 
Торрент: Зарегистрирован [ 2020-04-23 08:08 ] · A0CB06D46F398497F5578110CC3E8608543A76BA

Скачать .torrent

Скачать

64 KB

Статус: проверено
Скачан: 0 раз
Размер: 3,11 GB  ·  Тип торрента
terms.php
Профиль [ЛС]
Показать сообщения:    

Текущее время: 27-Ноя 09:21

Часовой пояс: UTC ± 0



Вы не можете начинать темы
Вы не можете отвечать на сообщения
Вы не можете редактировать свои сообщения
Вы не можете удалять свои сообщения
Вы не можете голосовать в опросах
Вы не можете прикреплять файлы к сообщениям
Вы можете скачивать файлы