Статистика раздачи
Размер:  12,25 GB   |    Зарегистрирован:  9 месяцев 2 дня   |    Скачан:  0 раз

Полного источника не было: Никогда

 
   
 
 

0H0 ®

Пол:
Не указан
Стаж:
9 месяцев 3 дня
Сообщений:
156

Трансформеры: Боты-спасатели/ Transformers: Rescue Bots1 Сезон- Год выпуска: 2011
Страна: США, Канада
Жанр: мультфильм, боевик, приключения, семейный
Перевод: Профессиональный (дублированный) по заказу ЗАО «Первый канал. Всемирная сеть»
Продолжительность: 00:21:00
Русские субтитры: нет
Режиссёр: Фрэнк Мольери / Frank Molieri-Описание: Боты-спасатели — это дружная команда автоботов, призванная помогать людям ...
Герои мультсериала — четверо автоботов, которые прибыли на Землю недавно, поэтому не знакомы с людскими правилами. Оптимус Прайм поручил им важную миссию — разузнать всё о людях, подружиться с ними и защищать их от разных земных бед и опасностей.
Чейз, Хитвейв, Блэйдс и Болдер работают на технически оснащенном острове, выдавая себя за обычные транспортные средства. Здесь автоботы объединяются с семьей специалистов быстрого реагирования, среди которых есть шеф полиции, пожарник, пилот вертолета и инженер. Их общая задача — поддерживать безопасность на острове, спасать его жителей во время стихийных бедствий и техногенных катастроф. Выполняя эту миссию, боты-спасатели научатся командной работе и станут настоящими героями.

Описание серий

1 серия. Family of Heroes
2 серия. Under Pressure
3 серия. Hotshots
4 серия. Flobsters on Parade
5 серия. The Alien Invasion of Griffin Rock
6 серия. Cody on Patrol
7 серия. Four Bots and a Baby
8 серия. Walk on the Wild Side
9 серия. Christmas in July
10 серия. Deep Trouble
11 серия. Return of the Dino-bot
12 серия. The Other Doctor
13 серия. The Reign of Morocco
14 серия. Small Blessings
15 серия. The Griffin Rock Triangle
16 серия. Rules and Regulations
17 серия. The Lost Bell
18 серия. Bumblebee to the Rescue
19 серия. You've Been Squilshed
20 серия. Countdown
21 серия. The Haunting of Griffin Rock
22 серия. Little White Lies
23 серия. Shake Up
24 серия. Rescue Boy
25 серия. It's a Bot Time
26 серия. Bot to the Future
-Доп. информация:

Релиз группы: -Качество: DVB
Формат: MPEG
Видео кодек: MPEG2
Аудио кодек: MPEG Audio (Version 1) (Layer 2)
Видео: MPEG 2, 720 x 576, 25 fps, 3100 kbps
Аудио: MPEG Audio (Version 1) (Layer 2), 2 Ch, 48 KHz, 192 kbps-Все раздачи мультсериала2 Сезон-

MediaInfo

F:\TORRENT\Трансформеры. Боты-спасатели. (1 сезон) (2011)_DVB by SLuMeP\6с. Трансформеры. Боты-спасатели. Cody on Patrol.mpg
General
Complete name : F:\TORRENT\Трансформеры. Боты-спасатели. (1 сезон) (2011)_DVB by SLuMeP\6с. Трансформеры. Боты-спасатели. Cody on Patrol.mpg
Format : MPEG-PS
File size : 481 MiB
Duration : 20mn 48s
Overall bit rate mode : Variable
Overall bit rate : 3 228 Kbps
Video #224
ID : 224 (0xE0)
Format : MPEG Video
Format version : Version 2
Format profile : Main@Main
Format settings, BVOP : Yes
Format settings, Matrix : Custom
Format settings, GOP : M=3, N=12
Duration : 20mn 48s
Bit rate mode : Variable
Bit rate : 2 972 Kbps
Maximum bit rate : 5 000 Kbps
Width : 720 pixels
Height : 576 pixels
Display aspect ratio : 4:3
Frame rate : 25.000 fps
Standard : PAL
Color space : YUV
Chroma subsampling : 4:2:0
Bit depth : 8 bits
Scan type : Interlaced
Scan order : Top Field First
Compression mode : Lossy
Bits/(Pixel*Frame) : 0.287
Time code of first frame : 00:00:00:00
Time code source : Group of pictures header
Stream size : 442 MiB (92%)
Audio #192
ID : 192 (0xC0)
Format : MPEG Audio
Format version : Version 1
Format profile : Layer 2
Duration : 20mn 48s
Bit rate mode : Constant
Bit rate : 192 Kbps
Channel(s) : 2 channels
Sampling rate : 48.0 KHz
Compression mode : Lossy
Stream size : 28.6 MiB (6%)

Скриншоты

Внимание! Раздача ведётся путём добавления новых серий

Чтобы начать докачку новой серии, пользователям необходимо сделать следующее:
(1) остановить скачивание,
(2) удалить старый торрент у себя из клиента (старые серии удалять не надо),
(3) скачать новый торрент и запустить его у себя в клиенте вместо старого, при этом указать клиенту путь в старую папку куда и должно происходить скачивание новых серий.
Ваш клиент при этом должен произвести хеширование (проверку) старой папки (если не производит сам - помогите ему сделать это), и будет докачивать только те серии которых у вас ещё нет. Старые серии при этом не удаляются, а продолжают раздаваться!
Eсли вы уже удалили старые серии, то предотвратить повторную закачку старых серий можно, отжав галочку в соответсвующих местах при запуске нового торрента. По возможности, желательно не удалять старые серии как можно дольше чтобы релизёр не столько продолжал раздавать старые серии, а смог сконцентрироваться на новых.
-
[cybertorrent.ru].t1752.torrent 
Торрент: Зарегистрирован [ 2018-02-16 08:44 ] · D2D77EA7FCDA2DAD7EA95430E76147330B5A7877

Скачать .torrent

Скачать

34 KB

Статус: проверено
Скачан: 0 раз
Размер: 12,25 GB
Профиль [ЛС]
Показать сообщения:    

Текущее время: 18-Ноя 23:24

Часовой пояс: UTC ± 0



Вы не можете начинать темы
Вы не можете отвечать на сообщения
Вы не можете редактировать свои сообщения
Вы не можете удалять свои сообщения
Вы не можете голосовать в опросах
Вы не можете прикреплять файлы к сообщениям
Вы можете скачивать файлы
Torrents24.ru открытый BitTorrent Torrents24.pl открытый BitTorrent CyberTorrent.ru открытый BitTorrent BtList.ru рейтинг BitTorrent трекеров Яндекс.Метрика