Статистика раздачи
Размер:  1,37 GB   |    Зарегистрирован:  3 месяца 6 дней   |    Скачан:  0 раз
Сидов:  23  [  0 KB/s  ]   Личеров:  1  [  0 KB/s  ]  
 
   
 
 

lopster ®

Пол:
Не указан
Стаж:
3 месяца 6 дней
Сообщений:
612

Однажды и навсегда Жанр: мелодрама
Год выпуска: 2015
Продолжительность: 01:29:59
Режиссёр: Артем Насыбулин
В ролях: Анна Леванова, Матвей Зубалевич, Сергей Губанов, Артём Крылов, Юлия Юрченко, Вадим Андреев, Ирина Чериченко, Екатерина Травова, Елена Лемешко, Максим Брэдок, Юлия Чиплиева, Константин Новиков, Вадим Померанцев, Маргарита Петрусенко, Александра Живова, Анна Калабина, Инна Степанова, Юрий Павлов
Описание: Казалось бы, всё вокруг Маши складывается как нельзя лучше - после окончания института у нее хорошая работа в банке, есть жених – перспективный юрист Игорь, вместе они уже планируют свадебное путешествие, но внезапно Маша становится свидетелем его измены. Одного предательства достаточно, чтобы порвать отношения. Личная жизнь дала трещину, зато у Маши успешно пошли дела на работе - деловые качества и красоту молодой сотрудницы оценивает директор филиала Геннадий. Машу назначают начальником отдела, но всё не так просто...
Доп. информация:

Релиз:
Рип: Серый1779
Сэмпл:

Качество видео: WEB-DLRip
Формат видео: AVI
Видео: 720x400 (1.80:1), 25 fps, XviD build 73 ~1975 kbps avg, 0.27 bit/pixel
Аудио: 48 kHz, AC3 Dolby Digital, 2/0 (L,R) ch, ~192 kbps

MediaInfo

Общее
Полное имя : Odnazdy.i.navsegda.2015.WEB-DLRip.Files-x.avi
Формат : AVI
Формат/Информация : Audio Video Interleave
Размер файла : 1,37 Гбайт
Продолжительность : 1 ч. 29 м.
Общий поток : 2178 Кбит/сек
Программа кодирования : VirtualDubMod 1.5.10.3 | www.virtualdub-fr.org || (build 2550/release)
Библиотека кодирования : VirtualDubMod build 2550/release
Видео
Идентификатор : 0
Формат : MPEG-4 Visual
Профиль формата : Advanced Simple@L5
Параметр BVOP формата : 1
Параметр QPel формата : Нет
Параметр GMC формата : Без точки перехода
Параметр матрицы формата : Выборочная
Идентификатор кодека : XVID
Идентификатор кодека/Подсказка : XviD
Продолжительность : 1 ч. 29 м.
Битрейт : 1976 Кбит/сек
Ширина : 720 пикселей
Высота : 400 пикселей
Соотношение сторон : 16:9
Частота кадров : 25,000 кадров/сек
Цветовое пространство : YUV
Субдискретизация насыщенности : 4:2:0
Битовая глубина : 8 бит
Тип развёртки : Прогрессивная
Метод сжатия : С потерями
Бит/(Пиксели*Кадры) : 0.274
Размер потока : 1,24 Гбайт (91%)
Библиотека кодирования : XviD 73
Аудио
Идентификатор : 1
Формат : AC-3
Формат/Информация : Audio Coding 3
Расширение режима : CM (complete main)
Параметр Endianness формата : Big
Идентификатор кодека : 2000
Продолжительность : 1 ч. 29 м.
Вид битрейта : Постоянный
Битрейт : 192 Кбит/сек
Каналы : 2 канала
Расположение каналов : Front: L R
Частота : 48,0 КГц
Частота кадров : 31,250 кадров/сек (1536 spf)
Метод сжатия : С потерями
Размер потока : 124 Мбайт (9%)
Выравнивание : Разделение по промежуткам
Продолжительность промежутка : 40 мс. (1,00 видеокадр)
Время предзагрузки промежутка : 500 мс.

Скриншот c названием фильма

Скриншоты

Доп.информация

Формально производство фильма закончено в 2013 году, если верить финальному титру, но премьера состоялась 08.12.2015.
[cybertorrent.ru].t176.torrent 
Торрент: Зарегистрирован [ 2018-02-15 13:57 ] · 619B6E719C7BAB9B32162A5C18D3FCDD71C87342

Скачать .torrent

Скачать

14 KB

Статус: проверено
Скачан: 0 раз
Размер: 1,37 GB
Профиль [ЛС]
Показать сообщения:    

Текущее время: 22-Май 00:09

Часовой пояс: UTC ± 0



Вы не можете начинать темы
Вы не можете отвечать на сообщения
Вы не можете редактировать свои сообщения
Вы не можете удалять свои сообщения
Вы не можете голосовать в опросах
Вы не можете прикреплять файлы к сообщениям
Вы можете скачивать файлы